Toplam 1 adet sonuctan sayfa basi 1 ile 1 arasi kadar sonuc gösteriliyor

Konu: Kefernahum - Capharnaüm (2018) 1080p BluRay x264 - PRoDJi Türkçe Altyazılı

  1. #1
    Super Moderator SuperUp - ait Kullanıcı Resmi (Avatar)
    Üyelik tarihi
    14 Nisan 2024
    Mesajlar
    8,973
    Konular
    8439
    Teşekkürleri
    5890
    Blog Entries
    7995
    Tecrübe Puanı
    590

    Standart Kefernahum - Capharnaüm (2018) 1080p BluRay x264 - PRoDJi Türkçe Altyazılı

    Kefernahum - Capharnaüm (2018) 1080p BluRay x264 - PRoDJi Türkçe Altyazılı

    [Ziyaretçiler üye olmadan, üyelerimiz ise konuya mesaj yazmadan linkleri görüntüleyemezler.Ziyaretçiler üye olmadan, üyelerimiz ise konuya mesaj yazmadan linkleri görüntüleyemezler.]
    Tür: Dram

    Film, Zain'in sıradan bir küçük çocuktan, kendisini istismar eden ailesine baş kaldırıp kaçan, zekası ve pratikliği ile sokaklardaki yaşam savaşından galip çıkan ve kendisine yapılan haksızlığın karşısında dimdik duran, 12 yaşındaki genç bir delikanlıya dönüşümünü gözler önüne seriyor. Bu süreçte Zain hayat mücadelesi veriyor, Etiyopyalı mülteci Rahil ve onun bebeği Yonas'a göz kulak oluyor, şiddet suçundan hapse giriyor ve en sonunda mahkemede adalet arıyor.

    Oyuncular: Zain Al Rafeea, Yordanos Shifera, Treasure Bankole, Kawsar Al Haddad, Fadi Kamel Yousef, Cedra Izzam, Alaa Chouchnieh, Elias Khoury, Nadine Labaki, Nour el Husseini

    [Ziyaretçiler üye olmadan, üyelerimiz ise konuya mesaj yazmadan linkleri görüntüleyemezler.Ziyaretçiler üye olmadan, üyelerimiz ise konuya mesaj yazmadan linkleri görüntüleyemezler.]
    FİLMDEN KARELER

    Kod:
    General
    Format         : Matroska
    File size        : 8.02 GiB
    Duration         : 2 h 6 min
    Overall bit rate       : 9 081 kb/s
    Frame rate        : 23.976 FPS
    Video
    Format         : AVC
    Format/Info        : Advanced Video Codec
    Duration         : 2 h 6 min
    Width         : 1 920 pixels
    Height         : 808 pixels
    Frame rate        : 23.976 (24000/1001) FPS
    Stream size        : 6.68 GiB (83%)
    Audio
    Format         : DTS
    Duration         : 2 h 6 min
    Channel(s)        : 6 channels
    Frame rate        : 93.750 FPS (512 SPF)
    Stream size        : 1.33 GiB (17%)
    Language         : Arabic
    Altyazı  #1
    Format         : UTF-8
    Codec ID/Info       : UTF-8 Plain Altyazı 
    Duration         : 1 h 59 min
    Frame rate        : 0.162 FPS
    Stream size        : 31.1 KiB (0%)
    Language         : Türkçe
    Altyazı  #2
    Format         : PGS
    Duration         : 1 h 59 min
    Frame rate        : 0.327 FPS
    Stream size        : 21.6 MiB (0%)
    Language         : English
    [Ziyaretçiler üye olmadan, üyelerimiz ise konuya mesaj yazmadan linkleri görüntüleyemezler.Ziyaretçiler üye olmadan, üyelerimiz ise konuya mesaj yazmadan linkleri görüntüleyemezler.]
    Kod:
    https://iniyor.net/tb/a7085c1f9cb89bd820c33db3fde140d8/Capharnaum.2018.BluRay.1080p.DTS.x264-PRoDJi.mkv.html
    SuperUp

    turbobit.net, gofile.io, doodrive.com, megaup.net, send.cm, 1fichier.com, mixdrop.ag, pixeldrain.com, streamtape.com, rapidgator.net
    İNİYOR.NET ÜCRETSİZ DOSYA İNDİRME LİMİTİ:
    GÜNLÜK 1 ADET VE MAX. 10 GB'DIR

    SİTEMİZE DESTEK OLMAK,
    TÜM LİNKLERE REKLAMSIZ VE SINIRSIZCA ERİŞEBİLMEK İÇİN
    VIP YA DA SUPER VIP ÜYELİK SATIN ALMANIZ GEREKLİDİR


    İNİYOR VIP ÜYELİK DETAYLARI İÇİN TIKLAYIN

    Her Ruh Haline Uygun Filmler İNİYOR VIP'te

    10 BİNLERCE İÇERİĞİ İNDİRMEDEN İZLEYİN

    Tüm Oyuncuların BoxSet'leri İNİYOR VIP'te - Üstelik Sürekli Güncel

    İNİYOR.NET İLE İLGİLİ TÜM AÇIKLAMALAR İÇİN BURAYA TIKLAYIN

  2. Aşağıdaki kullanıcı bu mesajdan dolayı SuperUp teşekkür ediyor

    FilmRip (1 hafta önce)

Konu Bilgileri

Bu Konuya Gözatan Kullanıcılar

Şu anda 1 kullanıcı bu konuyu görüntülüyor. (0 kayıtlı ve 1 misafir)

Benzer Konular

  1. Cevap: 1
    Son Mesaj : 31.Mayıs.2024, 17:25
  2. Cevap: 0
    Son Mesaj : 25.Mayıs.2024, 21:16
  3. Borsa - Wall Street (1987) 810p BluRay x264 Türkçe Altyazılı - PRoDJi
    Konu Sahibi SuperUp Forum 720p & 810p Orjinal Dil
    Cevap: 0
    Son Mesaj : 14.Mayıs.2024, 19:57
  4. Cevap: 0
    Son Mesaj : 14.Mayıs.2024, 19:56
  5. Kefernahum - Capharnaüm (2018) m1080p BluRay DUAL - HdT
    Konu Sahibi SuperUp Forum m1080p Türkçe Dublaj
    Cevap: 0
    Son Mesaj : 09.Mayıs.2024, 17:25

Bookmarks

Yetkileriniz

  • Konu Acma Yetkiniz Yok
  • Cevap Yazma Yetkiniz Yok
  • Eklenti Yükleme Yetkiniz Yok
  • Mesajınızı Değiştirme Yetkiniz Yok
  •  
1 2 3 4 5 6 7 8 9 10 11 12 13 14 15 16 17 18 19 20 21 22 23 24 25 26 27 28 29 30 31 32 33 34 35 36 37 38 39 40 41 42 43 44 45 46 47 48 49 50 51 52 53 54 55 56 57 58 59 60 61 62 63 64 65 66 67 68 69 70 71 72 73 74 75 76 77 78 79 80 81 82 83 84 85 86 87 88 89 90 91 92 93 94 95 96 97 98 99 100 101 102 103 104 105 106 107 108 109 110 111 112 113 114 115 116 117 118 119 120 121 122 123 124 125 126 127 128 129 130 131 132 133 134 135 136 137 138 139 140 141 142 143 144 145 146 147 148 149 150 151 152 153 154 155 156 157 158 159 160 161 162 163 164 165 166 167 168 169 170 171 172 173 174 175 176 177 178 179 180 181 182 183 184 185 186 187 188 189 190 191 192 193 194 195 196 197 198 199 200