A Second Chance (2011) 1080p NF WEB-DL H264 Türkçe Altyazılı

[Ziyaretçiler üye olmadan, üyelerimiz ise konuya mesaj yazmadan linkleri görüntüleyemezler.Ziyaretçiler üye olmadan, üyelerimiz ise konuya mesaj yazmadan linkleri görüntüleyemezler.]
Tür: Dram, Aile

Jimnastikçi Maddy, en tepeye ulaşmak için gereken öz güvene sahip değildir. Ancak yeni koçunun yardımıyla milli takımda yer bulma şansı elde eder.

Oyuncular: Adam Tuominen, Emily Morris, Nina Pearce, Amy Handley, Carmel Johnson, Alanah Gilbert, Lilly Blacker, Hapi Murphy, Elysia Markou, Sarah Murray

[Ziyaretçiler üye olmadan, üyelerimiz ise konuya mesaj yazmadan linkleri görüntüleyemezler.Ziyaretçiler üye olmadan, üyelerimiz ise konuya mesaj yazmadan linkleri görüntüleyemezler.]
FİLMDEN KARELER

Kod:
General
Format         : Matroska
File size        : 3.40 GiB
Duration         : 1 h 35 min
Overall bit rate mode     : Variable
Overall bit rate       : 5 114 kb/s
Frame rate        : 23.976 FPS
Video
Format         : AVC
Format/Info        : Advanced Video Codec
Duration         : 1 h 35 min
Width         : 1 920 pixels
Height         : 1 080 pixels
Frame rate        : 23.976 (24000/1001) FPS
Stream size        : 2.89 GiB (85%)
Ses 1
Format         : AAC LC SBR
Format/Info        : Advanced Audio Codec Low Complexity with Spectral Band Replication
Duration         : 1 h 35 min
Channel(s)        : 2 channels
Frame rate        : 23.438 FPS (2048 SPF)
Stream size        : 87.2 MiB (3%)
Language         : Portuguese (BR)
Ses 2
Format         : E-AC-3
Duration         : 1 h 35 min
Channel(s)        : 6 channels
Frame rate        : 31.250 FPS (1536 SPF)
Stream size        : 436 MiB (13%)
Language         : English
Altyazı  #1
Format         : UTF-8
Codec ID/Info       : UTF-8 Plain Altyazı 
Duration         : 1 h 29 min
Frame rate        : 0.185 FPS
Stream size        : 32.6 KiB (0%)
Language         : English
Altyazı  #2
Format         : UTF-8
Codec ID/Info       : UTF-8 Plain Altyazı 
Duration         : 1 h 29 min
Frame rate        : 0.193 FPS
Stream size        : 33.5 KiB (0%)
Language         : English
Altyazı  #3
Format         : UTF-8
Codec ID/Info       : UTF-8 Plain Altyazı 
Duration         : 1 h 29 min
Frame rate        : 0.156 FPS
Stream size        : 55.4 KiB (0%)
Language         : Arabic
Altyazı  #4
Format         : UTF-8
Codec ID/Info       : UTF-8 Plain Altyazı 
Duration         : 1 h 34 min
Frame rate        : 0.157 FPS
Stream size        : 26.9 KiB (0%)
Language         : Danish
Altyazı  #5
Format         : UTF-8
Codec ID/Info       : UTF-8 Plain Altyazı 
Duration         : 1 h 32 min
Frame rate        : 0.163 FPS
Stream size        : 32.3 KiB (0%)
Language         : German
Altyazı  #6
Format         : UTF-8
Codec ID/Info       : UTF-8 Plain Altyazı 
Duration         : 1 h 29 min
Frame rate        : 0.158 FPS
Stream size        : 55.3 KiB (0%)
Language         : Greek
Altyazı  #7
Format         : UTF-8
Codec ID/Info       : UTF-8 Plain Altyazı 
Duration         : 1 h 32 min
Frame rate        : 0.165 FPS
Stream size        : 31.7 KiB (0%)
Language         : Spanish (ES)
Altyazı  #8
Format         : UTF-8
Codec ID/Info       : UTF-8 Plain Altyazı 
Duration         : 1 h 32 min
Frame rate        : 0.164 FPS
Stream size        : 29.6 KiB (0%)
Language         : Finnish
Altyazı  #9
Format         : UTF-8
Codec ID/Info       : UTF-8 Plain Altyazı 
Duration         : 1 h 34 min
Frame rate        : 0.161 FPS
Stream size        : 35.8 KiB (0%)
Language         : French
Altyazı  #10
Format         : UTF-8
Codec ID/Info       : UTF-8 Plain Altyazı 
Duration         : 1 h 29 min
Frame rate        : 0.159 FPS
Stream size        : 49.1 KiB (0%)
Language         : Hebrew
Altyazı  #11
Format         : UTF-8
Codec ID/Info       : UTF-8 Plain Altyazı 
Duration         : 1 h 29 min
Frame rate        : 0.189 FPS
Stream size        : 34.4 KiB (0%)
Language         : Italian
Altyazı  #12
Format         : UTF-8
Codec ID/Info       : UTF-8 Plain Altyazı 
Duration         : 1 h 32 min
Frame rate        : 0.182 FPS
Stream size        : 27.3 KiB (0%)
Language         : Japanese
Altyazı  #13
Format         : UTF-8
Codec ID/Info       : UTF-8 Plain Altyazı 
Duration         : 1 h 32 min
Frame rate        : 0.202 FPS
Stream size        : 33.7 KiB (0%)
Language         : Korean
Altyazı  #14
Format         : UTF-8
Codec ID/Info       : UTF-8 Plain Altyazı 
Duration         : 1 h 34 min
Frame rate        : 0.161 FPS
Stream size        : 24.4 KiB (0%)
Language         : Norwegian Bokmal
Altyazı  #15
Format         : UTF-8
Codec ID/Info       : UTF-8 Plain Altyazı 
Duration         : 1 h 32 min
Frame rate        : 0.164 FPS
Stream size        : 28.7 KiB (0%)
Language         : Dutch
Altyazı  #16
Format         : UTF-8
Codec ID/Info       : UTF-8 Plain Altyazı 
Duration         : 1 h 32 min
Frame rate        : 0.160 FPS
Stream size        : 28.7 KiB (0%)
Language         : Polish
Altyazı  #17
Format         : UTF-8
Codec ID/Info       : UTF-8 Plain Altyazı 
Duration         : 1 h 29 min
Frame rate        : 0.163 FPS
Stream size        : 33.1 KiB (0%)
Language         : Portuguese (PT)
Altyazı  #18
Format         : UTF-8
Codec ID/Info       : UTF-8 Plain Altyazı 
Duration         : 1 h 32 min
Frame rate        : 0.165 FPS
Stream size        : 31.7 KiB (0%)
Language         : Romanian
Altyazı  #19
Format         : UTF-8
Codec ID/Info       : UTF-8 Plain Altyazı 
Duration         : 1 h 34 min
Frame rate        : 0.161 FPS
Stream size        : 27.8 KiB (0%)
Language         : Swedish
Altyazı  #20
Format         : UTF-8
Codec ID/Info       : UTF-8 Plain Altyazı 
Duration         : 1 h 29 min
Frame rate        : 0.210 FPS
Stream size        : 72.8 KiB (0%)
Language         : Thai
Altyazı  #21
Format         : UTF-8
Codec ID/Info       : UTF-8 Plain Altyazı 
Duration         : 1 h 32 min
Frame rate        : 0.170 FPS
Stream size        : 36.1 KiB (0%)
Language         : Türkçe
Altyazı  #22
Format         : UTF-8
Codec ID/Info       : UTF-8 Plain Altyazı 
Duration         : 1 h 32 min
Frame rate        : 0.201 FPS
Stream size        : 30.9 KiB (0%)
Language         : Chinese (Simplified)
Altyazı  #23
Format         : UTF-8
Codec ID/Info       : UTF-8 Plain Altyazı 
Duration         : 1 h 32 min
Frame rate        : 0.199 FPS
Stream size        : 32.0 KiB (0%)
Language         : Chinese (Traditional)
[Ziyaretçiler üye olmadan, üyelerimiz ise konuya mesaj yazmadan linkleri görüntüleyemezler.Ziyaretçiler üye olmadan, üyelerimiz ise konuya mesaj yazmadan linkleri görüntüleyemezler.]
Kod:
https://iniyor.net/tb/20d837528491b1de56a0a13fc6c47247/A.2nd.Chance.2011.1080p.NF.WEB-DL.AAC2.0.H.264.DUAL-XiQUEXiQUE.mkv.html
SuperUp

turbobit.net, gofile.io, doodrive.com, megaup.net, send.cm, 1fichier.com, mixdrop.ag, pixeldrain.com, streamtape.com, rapidgator.net