Parisin Altında - Under Paris - Sous la Seine (2024) 1080p DUAL NF WEB-DL x264 Atmos - HdT

[Ziyaretçiler üye olmadan, üyelerimiz ise konuya mesaj yazmadan linkleri görüntüleyemezler.Ziyaretçiler üye olmadan, üyelerimiz ise konuya mesaj yazmadan linkleri görüntüleyemezler.]
Tür: Gerilim, Korku, Aksiyon, Gizem

Yaşlı bir bilim insanı, Seine Nehri'ndeki devasa köpek balığının Paris'i kana bulayıp uluslararası bir facia yaratmasını önlemek için trajik geçmişiyle yüzleşmek zorunda kalır.

Oyuncular: Berenice Bejo, Nassim Lyes, Lea Leviant, Nagisa Morimoto, Anais Parello, Inaki Lartigue, Anne Marivin, Timi-Joy Marbot, Ricky Tribord, Aurelia Petit

[Ziyaretçiler üye olmadan, üyelerimiz ise konuya mesaj yazmadan linkleri görüntüleyemezler.Ziyaretçiler üye olmadan, üyelerimiz ise konuya mesaj yazmadan linkleri görüntüleyemezler.]
FİLMDEN KARELER

Kod:
General
Format         : Matroska
File size        : 5.04 GiB
Duration         : 1 h 43 min
Overall bit rate mode     : Variable
Overall bit rate       : 6 943 kb/s
Frame rate        : 24.000 FPS
Video
Format         : AVC
Format/Info        : Advanced Video Codec
Duration         : 1 h 43 min
Width         : 1 920 pixels
Height         : 1 080 pixels
Frame rate        : 24.000 FPS
Stream size        : 3.55 GiB (70%)
Language         : Multiple languages
Audio #1
Format         : E-AC-3
Duration         : 1 h 43 min
Channel(s)        : 6 channels
Frame rate        : 31.250 FPS (1536 SPF)
Stream size        : 476 MiB (9%)
Language         : Turkish
Audio #2
Format         : E-AC-3
Duration         : 1 h 43 min
Channel(s)        : 6 channels
Frame rate        : 31.250 FPS (1536 SPF)
Stream size        : 476 MiB (9%)
Language         : English
Audio #3
Format         : E-AC-3 JOC
Duration         : 1 h 43 min
Channel(s)        : 6 channels
Frame rate        : 31.250 FPS (1536 SPF)
Stream size        : 571 MiB (11%)
Language         : French
Text #1
Format         : UTF-8
Duration         : 1 h 41 min
Frame rate        : 0.155 FPS
Stream size        : 30.7 KiB (0%)
Language         : Turkish
Text #2
Format         : UTF-8
Duration         : 1 h 35 min
Frame rate        : 0.004 FPS
Stream size        : 841 Bytes (0%)
Language         : Turkish
Text #3
Format         : UTF-8
Duration         : 1 h 41 min
Frame rate        : 0.169 FPS
Stream size        : 29.2 KiB (0%)
Language         : English
Text #4
Format         : UTF-8
Duration         : 1 h 11 min
Frame rate        : 0.003 FPS
Stream size        : 514 Bytes (0%)
Language         : English
Text #5
Format         : UTF-8
Duration         : 1 h 41 min
Frame rate        : 0.228 FPS
Stream size        : 49.8 KiB (0%)
Language         : French
[Ziyaretçiler üye olmadan, üyelerimiz ise konuya mesaj yazmadan linkleri görüntüleyemezler.Ziyaretçiler üye olmadan, üyelerimiz ise konuya mesaj yazmadan linkleri görüntüleyemezler.]
SuperUp

turbobit.net, gofile.io, doodrive.com, megaup.net, send.cm, 1fichier.com, mixdrop.ag, pixeldrain.com, streamtape.com, rapidgator.net