Sıradan Melekler - Ordinary Angels (2024) 1080p BluRay x264 DUAL - HdT

[Ziyaretçiler üye olmadan, üyelerimiz ise konuya mesaj yazmadan linkleri görüntüleyemezler.Ziyaretçiler üye olmadan, üyelerimiz ise konuya mesaj yazmadan linkleri görüntüleyemezler.]
Tür: Dram

Sıradan Melekler, olağanüstü bir gerçek hikayeye dayalıdır. Kentucky'nin küçük bir kasabasında yaşayan amansız ama mücadeleci Sharon (Hilary Swank), iki kızı için çok çalışan dul Ed (Alan Ritchson) ile tanışınca hayatı yeniden anlam kazanır. Ed'in en küçük kızı karaciğer naklini beklerken Sharon, aileye yardım etmeyi kafasına koyar ve bunun için dağları yerinden oynatır. Böylelikle ortaya ilham verici bir inanç hikayesi, günlük mucizeler ve sıradan melekler çıkar.

Oyuncular: Hilary Swank, Alan Ritchson, Emily Mitchell, Skywalker Hughes, Nancy Travis, Tamala Jones, Drew Powell, Amy Acker, Stephanie Sy, Erik Athavale

[Ziyaretçiler üye olmadan, üyelerimiz ise konuya mesaj yazmadan linkleri görüntüleyemezler.Ziyaretçiler üye olmadan, üyelerimiz ise konuya mesaj yazmadan linkleri görüntüleyemezler.]
FİLMDEN KARELER

Kod:
General
Format         : Matroska
File size        : 16.0 GiB
Duration         : 1 h 57 min
Overall bit rate       : 19.4 Mb/s
Frame rate        : 23.976 FPS
Video
Format         : AVC
Format/Info        : Advanced Video Codec
Duration         : 1 h 57 min
Width         : 1 920 pixels
Height         : 804 pixels
Frame rate        : 23.976 (24000/1001) FPS
Stream size        : 14.4 GiB (90%)
Language         : English
Audio #1
Format         : AC-3
Format/Info        : Audio Coding 3
Duration         : 1 h 57 min
Channel(s)        : 6 channels
Frame rate        : 31.250 FPS (1536 SPF)
Stream size        : 324 MiB (2%)
Language         : Turkish
Audio #2
Format         : E-AC-3
Duration         : 1 h 57 min
Channel(s)        : 8 channels
Frame rate        : 31.250 FPS (1536 SPF)
Stream size        : 1.26 GiB (8%)
Language         : English
Text #1
Format         : UTF-8
Duration         : 1 h 52 min
Frame rate        : 0.285 FPS
Stream size        : 55.0 KiB (0%)
Language         : English
Text #2
Format         : UTF-8
Duration         : 1 h 56 min
Frame rate        : 0.309 FPS
Stream size        : 64.6 KiB (0%)
Language         : English
Text #3
Format         : UTF-8
Duration         : 1 h 56 min
Frame rate        : 0.278 FPS
Stream size        : 53.2 KiB (0%)
Language         : Turkish
Text #4
Format         : UTF-8
Duration         : 1 h 55 min
Frame rate        : 0.010 FPS
Stream size        : 2.69 KiB (0%)
Language         : Turkish
[Ziyaretçiler üye olmadan, üyelerimiz ise konuya mesaj yazmadan linkleri görüntüleyemezler.Ziyaretçiler üye olmadan, üyelerimiz ise konuya mesaj yazmadan linkleri görüntüleyemezler.]
SuperUp

turbobit.net, gofile.io, doodrive.com, megaup.net, send.cm, 1fichier.com, mixdrop.ag, pixeldrain.com, streamtape.com, rapidgator.net