Toplam 2 adet sonuctan sayfa basi 1 ile 2 arasi kadar sonuc gösteriliyor

Konu: Maskeli Kahraman Zorro - The Mask of Zorro (1998) 1080p DUAL BluRay x264

  1. #1
    Super Moderator SuperUp - ait Kullanıcı Resmi (Avatar)
    Üyelik tarihi
    14 Nisan 2024
    Mesajlar
    6,251
    Konular
    5898
    Teşekkürleri
    3778
    Blog Entries
    2062
    Tecrübe Puanı
    378

    Standart Maskeli Kahraman Zorro - The Mask of Zorro (1998) 1080p DUAL BluRay x264

    Maskeli Kahraman Zorro - The Mask of Zorro (1998) 1080p DUAL BluRay x264

    [Ziyaretçiler üye olmadan, üyelerimiz ise konuya mesaj yazmadan linkleri görüntüleyemezler.Ziyaretçiler üye olmadan, üyelerimiz ise konuya mesaj yazmadan linkleri görüntüleyemezler.]
    Tür: Aksiyon, Macera

    Don Diego Dela Vega nın California da efsanevi ve romantik bir kahraman Zorro olarak, İspanyol zulmüne karşı savaşmaya başladıktan bu yana tam yirmi yıl geçmiştir. Yıllarını hapiste geçiren Don Diego, güçlü İspanyol Vali Don Rafael Montero yu durdurabilmek için bir çare bulmak zorundadır. Aklına gelen ilk çözüm ise gerçekten mükemmeldir. Kendine bir halef bulacak ve onu yeni Zorro olarak yetiştirerek İspanyolların belası haline getirecektir. Bu amaçla işe koyulan Don Diego belalı bir geçmişe sahip olan haydut Alejandro Murieta yı bulur. Genç adamı adeta yeniden yaratan Don Diego, ezeli rakibi Don Montero ya unutamayacağı bir ders vermek amacındadır...

    Oyuncular: Antonio Banderas, Anthony Hopkins, Catherine Zeta-Jones, Stuart Wilson, Matt Letscher, L.Q. Jones, Diego Sieres, Jose Maria de Tavira, Tony Amendola, Emiliano Guerra

    [Ziyaretçiler üye olmadan, üyelerimiz ise konuya mesaj yazmadan linkleri görüntüleyemezler.Ziyaretçiler üye olmadan, üyelerimiz ise konuya mesaj yazmadan linkleri görüntüleyemezler.]
    FİLMDEN KARELER

    Kod:
    General
    Format         : Matroska
    File size        : 2.17 GiB
    Duration         : 2 h 17 min
    Overall bit rate       : 2 254 kb/s
    Frame rate        : 23.976 FPS
    Video
    Format         : AVC
    Format/Info        : Advanced Video Codec
    Duration         : 2 h 17 min
    Width         : 1 920 pixels
    Height         : 800 pixels
    Frame rate        : 23.976 (24000/1001) FPS
    Stream size        : 1.97 GiB (91%)
    Audio #1
    Format         : AAC LC
    Format/Info        : Advanced Audio Codec Low Complexity
    Duration         : 2 h 17 min
    Channel(s)        : 2 channels
    Frame rate        : 46.875 FPS (1024 SPF)
    Stream size        : 104 MiB (5%)
    Audio #2
    Format         : AAC LC
    Format/Info        : Advanced Audio Codec Low Complexity
    Duration         : 2 h 17 min
    Channel(s)        : 2 channels
    Frame rate        : 46.875 FPS (1024 SPF)
    Stream size        : 95.0 MiB (4%)
    Language         : Turkish
    [Ziyaretçiler üye olmadan, üyelerimiz ise konuya mesaj yazmadan linkleri görüntüleyemezler.Ziyaretçiler üye olmadan, üyelerimiz ise konuya mesaj yazmadan linkleri görüntüleyemezler.]
    SuperUp

    turbobit.net, gofile.io, doodrive.com, megaup.net, send.cm, 1fichier.com, mixdrop.ag, pixeldrain.com, streamtape.com, rapidgator.net

  2. Aşağıdaki kullanıcı bu mesajdan dolayı SuperUp teşekkür ediyor

    itom (1 hafta önce)

  3. #2
    Filmrip Üye itom - ait Kullanıcı Resmi (Avatar)
    Üyelik tarihi
    07 Şubat 2023
    Mesajlar
    9,576
    Konular
    0
    Teşekkürleri
    1225
    Tecrübe Puanı
    124

    Standart

    Teşekkürler

Konu Bilgileri

Bu Konuya Gözatan Kullanıcılar

Şu anda 1 kullanıcı bu konuyu görüntülüyor. (0 kayıtlı ve 1 misafir)

Benzer Konular

  1. Demir Maskeli Adam - The Man in the Iron Mask (1998) 1080p BluRay x264 DUAL
    Konu Sahibi SuperUp Forum 1080p Türkçe Dublaj
    Cevap: 5
    Son Mesaj : 2 Hafta önce, 17:14
  2. The Mask of Zorro 1998 1080p BDRiP x264 TR.EN
    Konu Sahibi FilmRip Forum BluRay Dual TR-EN Filmler
    Cevap: 0
    Son Mesaj : 11.Ocak.2024, 04:58
  3. Zorro's Fighting Legion COMPLETE S01
    Konu Sahibi admin Forum Güncel Alt Yazılı BoxSet Diziler
    Cevap: 0
    Son Mesaj : 10.Mart.2023, 18:14
  4. Zorro and Son COMPLETE mini series
    Konu Sahibi admin Forum Güncel Alt Yazılı BoxSet Diziler
    Cevap: 0
    Son Mesaj : 21.Şubat.2023, 15:25
  5. Zorro Efsanesi İndir – Türkçe Dublaj 1080p
    Konu Sahibi FilmRip Forum BluRay Dual TR-EN Filmler
    Cevap: 0
    Son Mesaj : 19.Şubat.2023, 10:23

Thread Participants: 1

Bookmarks

Yetkileriniz

  • Konu Acma Yetkiniz Yok
  • Cevap Yazma Yetkiniz Yok
  • Eklenti Yükleme Yetkiniz Yok
  • Mesajınızı Değiştirme Yetkiniz Yok
  •  
1 2 3 4 5 6 7 8 9 10 11 12 13 14 15 16 17 18 19 20 21 22 23 24 25 26 27 28 29 30 31 32 33 34 35 36 37 38 39 40 41 42 43 44 45 46 47 48 49 50 51 52 53 54 55 56 57 58 59 60 61 62 63 64 65 66 67 68 69 70 71 72 73 74 75 76 77 78 79 80 81 82 83 84 85 86 87 88 89 90 91 92 93 94 95 96 97 98 99 100 101 102 103 104 105 106 107 108 109 110 111 112 113 114 115 116 117 118 119 120 121 122 123 124 125 126 127 128 129 130 131 132 133 134 135 136 137 138 139 140 141 142 143 144 145 146 147 148 149 150 151 152 153 154 155 156 157 158 159 160 161 162 163 164 165 166 167 168 169 170 171 172 173 174 175 176 177 178 179 180 181 182 183 184 185 186 187 188 189 190 191 192 193 194 195 196 197 198 199 200 201 202 203 204 205 206 207 208 209 210