Toplam 2 adet sonuctan sayfa basi 1 ile 2 arasi kadar sonuc gösteriliyor

Konu: Çıkış Yok - No Way Up (2024) 1080p DUAL BluRay x264 - HdT

  1. #1
    Super Moderator SuperUp - ait Kullanıcı Resmi (Avatar)
    Üyelik tarihi
    14 Nisan 2024
    Mesajlar
    6,253
    Konular
    5900
    Teşekkürleri
    3780
    Blog Entries
    2064
    Tecrübe Puanı
    379

    Standart Çıkış Yok - No Way Up (2024) 1080p DUAL BluRay x264 - HdT

    Çıkış Yok - No Way Up (2024) 1080p DUAL BluRay x264 - HdT

    [Ziyaretçiler üye olmadan, üyelerimiz ise konuya mesaj yazmadan linkleri görüntüleyemezler.Ziyaretçiler üye olmadan, üyelerimiz ise konuya mesaj yazmadan linkleri görüntüleyemezler.]
    Tür: Aksiyon, Korku, Gerilim

    Film, düşen bir uçağın içerisinde yaşam mücadelesi veren bir grup insanın yaşadıklarını konu ediniyor.

    Oyuncular: Colm Meaney, Phyllis Logan, Sophie McIntosh, Will Attenborough, Jeremias Amoore, Manuel Pacific, Grace Nettle, James Carroll Jordan, David J Biscoe, David Samartin

    [Ziyaretçiler üye olmadan, üyelerimiz ise konuya mesaj yazmadan linkleri görüntüleyemezler.Ziyaretçiler üye olmadan, üyelerimiz ise konuya mesaj yazmadan linkleri görüntüleyemezler.]
    FİLMDEN KARELER

    Kod:
    General
    Format         : Matroska
    File size        : 8.02 GiB
    Duration         : 1 h 30 min
    Overall bit rate       : 12.7 Mb/s
    Frame rate        : 24.000 FPS
    Video
    Format         : AVC
    Format/Info        : Advanced Video Codec
    Duration         : 1 h 30 min
    Width         : 1 920 pixels
    Height         : 800 pixels
    Frame rate        : 24.000 FPS
    Stream size        : 7.50 GiB (93%)
    Language         : English
    Audio #1
    Format         : AC-3
    Format/Info        : Audio Coding 3
    Duration         : 1 h 30 min
    Channel(s)        : 2 channels
    Frame rate        : 31.250 FPS (1536 SPF)
    Stream size        : 124 MiB (2%)
    Language         : Turkish
    Audio #2
    Format         : AC-3
    Format/Info        : Audio Coding 3
    Duration         : 1 h 30 min
    Channel(s)        : 6 channels
    Frame rate        : 31.250 FPS (1536 SPF)
    Stream size        : 415 MiB (5%)
    Language         : English
    Text #1
    Format         : UTF-8
    Duration         : 1 h 29 min
    Frame rate        : 0.238 FPS
    Stream size        : 31.6 KiB (0%)
    Language         : English
    Text #2
    Format         : UTF-8
    Duration         : 1 h 29 min
    Frame rate        : 0.293 FPS
    Stream size        : 34.8 KiB (0%)
    Language         : English
    Text #3
    Format         : UTF-8
    Duration         : 1 h 21 min
    Frame rate        : 0.146 FPS
    Stream size        : 24.2 KiB (0%)
    Language         : Turkish
    Text #4
    Format         : UTF-8
    Duration         : 1 h 30 min
    Frame rate        : 0.001 FPS
    Stream size        : 464 Bytes (0%)
    [Ziyaretçiler üye olmadan, üyelerimiz ise konuya mesaj yazmadan linkleri görüntüleyemezler.Ziyaretçiler üye olmadan, üyelerimiz ise konuya mesaj yazmadan linkleri görüntüleyemezler.]
    SuperUp

    turbobit.net, gofile.io, doodrive.com, megaup.net, send.cm, 1fichier.com, mixdrop.ag, pixeldrain.com, streamtape.com, rapidgator.net

  2. Aşağıdaki kullanıcı bu mesajdan dolayı SuperUp teşekkür ediyor

    thewire (1 hafta önce)

  3. #2
    Filmrip Üye thewire - ait Kullanıcı Resmi (Avatar)
    Üyelik tarihi
    23 Mart 2023
    Mesajlar
    119
    Konular
    0
    Teşekkürleri
    50
    Tecrübe Puanı
    7

    Standart

    teşekkürler

Konu Bilgileri

Bu Konuya Gözatan Kullanıcılar

Şu anda 1 kullanıcı bu konuyu görüntülüyor. (0 kayıtlı ve 1 misafir)

Benzer Konular

  1. Çıkış Yok - No Way Up (2024) 1080p WEB-DL x264 DUAL - HdT
    Konu Sahibi SuperUp Forum 1080p Türkçe Dublaj
    Cevap: 4
    Son Mesaj : 2 Hafta önce, 11:33
  2. Çıkış Yok - No Way Up (2024) 720p BluRay x264
    Konu Sahibi SuperUp Forum 720p & 810p Orjinal Dil
    Cevap: 0
    Son Mesaj : 2 Hafta önce, 20:37
  3. Çıkış Yok - No Way Up (2024) 1080p BluRay REMUX
    Konu Sahibi SuperUp Forum REMUX Orjinal Dil
    Cevap: 0
    Son Mesaj : 2 Hafta önce, 20:37
  4. Çıkış Yok - No Way Up (2024) 1080p BluRay x264
    Konu Sahibi SuperUp Forum 1080p Orjinal Dil
    Cevap: 0
    Son Mesaj : 2 Hafta önce, 20:37
  5. Cevap: 0
    Son Mesaj : 05.Mayıs.2024, 21:21

Thread Participants: 1

Bookmarks

Yetkileriniz

  • Konu Acma Yetkiniz Yok
  • Cevap Yazma Yetkiniz Yok
  • Eklenti Yükleme Yetkiniz Yok
  • Mesajınızı Değiştirme Yetkiniz Yok
  •  
1 2 3 4 5 6 7 8 9 10 11 12 13 14 15 16 17 18 19 20 21 22 23 24 25 26 27 28 29 30 31 32 33 34 35 36 37 38 39 40 41 42 43 44 45 46 47 48 49 50 51 52 53 54 55 56 57 58 59 60 61 62 63 64 65 66 67 68 69 70 71 72 73 74 75 76 77 78 79 80 81 82 83 84 85 86 87 88 89 90 91 92 93 94 95 96 97 98 99 100 101 102 103 104 105 106 107 108 109 110 111 112 113 114 115 116 117 118 119 120 121 122 123 124 125 126 127 128 129 130 131 132 133 134 135 136 137 138 139 140 141 142 143 144 145 146 147 148 149 150 151 152 153 154 155 156 157 158 159 160 161 162 163 164 165 166 167 168 169 170 171 172 173 174 175 176 177 178 179 180 181 182 183 184 185 186 187 188 189 190 191 192 193 194 195 196 197 198 199 200 201 202 203 204 205 206 207 208 209 210