Transformers: Canavarların Yükselişi - Transformers: Rise of the Beasts (2023) 1080p DUAL BluRay x265

[Ziyaretçiler üye olmadan, üyelerimiz ise konuya mesaj yazmadan linkleri görüntüleyemezler.Ziyaretçiler üye olmadan, üyelerimiz ise konuya mesaj yazmadan linkleri görüntüleyemezler.]
Tür: Aksiyon, Macera, Bilim-Kurgu

Film, Dünya'da süren Otobotlarla Decepticon'lar arasındaki savaşta yeni bir Transformers türü olan Maximal'leri evrene dahil ediyor.

Oyuncular: Anthony Ramos, Dominique Fishback, Peter Cullen, Ron Perlman, Peter Dinklage, Michelle Yeoh, Pete Davidson, Liza Koshy, Cristo Fernandez, Luna Lauren Velez

[Ziyaretçiler üye olmadan, üyelerimiz ise konuya mesaj yazmadan linkleri görüntüleyemezler.Ziyaretçiler üye olmadan, üyelerimiz ise konuya mesaj yazmadan linkleri görüntüleyemezler.]
FİLMDEN KARELER

Kod:
General
Format         : Matroska
File size        : 3.09 GiB
Duration         : 2 h 7 min
Overall bit rate       : 3 482 kb/s
Frame rate        : 23.976 FPS
Video
Format         : HEVC
Format/Info        : High Efficiency Video Coding
Duration         : 2 h 7 min
Width         : 1 920 pixels
Height         : 804 pixels
Frame rate        : 23.976 (24000/1001) FPS
Stream size        : 2.63 GiB (85%)
Language         : English
Audio #1
Format         : E-AC-3
Duration         : 2 h 7 min
Channel(s)        : 6 channels
Frame rate        : 31.250 FPS (1536 SPF)
Stream size        : 349 MiB (11%)
Language         : English
Audio #2
Format         : AAC LC
Format/Info        : Advanced Audio Codec Low Complexity
Duration         : 2 h 7 min
Channel(s)        : 2 channels
Frame rate        : 43.066 FPS (1024 SPF)
Stream size        : 117 MiB (4%)
Language         : Turkish
Text #1
Format         : UTF-8
Duration         : 1 h 56 min
Frame rate        : 0.217 FPS
Stream size        : 46.9 KiB (0%)
Language         : English
Text #2
Format         : UTF-8
Duration         : 1 h 56 min
Frame rate        : 0.285 FPS
Stream size        : 57.7 KiB (0%)
Language         : English
Text #3
Format         : UTF-8
Duration         : 1 h 55 min
Frame rate        : 0.195 FPS
Stream size        : 42.1 KiB (0%)
Language         : Turkish
[Ziyaretçiler üye olmadan, üyelerimiz ise konuya mesaj yazmadan linkleri görüntüleyemezler.Ziyaretçiler üye olmadan, üyelerimiz ise konuya mesaj yazmadan linkleri görüntüleyemezler.]
SuperUp

turbobit.net, gofile.io, doodrive.com, megaup.net, send.cm, 1fichier.com, mixdrop.ag, pixeldrain.com, streamtape.com, rapidgator.net