Toplam 2 adet sonuctan sayfa basi 1 ile 2 arasi kadar sonuc gösteriliyor

Konu: Transformers: Bumblebee - Bumblebee (2018) 1080p DUAL BluRay x265

  1. #1
    Super Moderator SuperUp - ait Kullanıcı Resmi (Avatar)
    Üyelik tarihi
    14 Nisan 2024
    Mesajlar
    6,024
    Konular
    5686
    Teşekkürleri
    3611
    Blog Entries
    1846
    Tecrübe Puanı
    362

    Standart Transformers: Bumblebee - Bumblebee (2018) 1080p DUAL BluRay x265

    Transformers: Bumblebee - Bumblebee (2018) 1080p DUAL BluRay x265

    [Ziyaretçiler üye olmadan, üyelerimiz ise konuya mesaj yazmadan linkleri görüntüleyemezler.Ziyaretçiler üye olmadan, üyelerimiz ise konuya mesaj yazmadan linkleri görüntüleyemezler.]
    Tür: Aksiyon, Macera, Bilim-Kurgu

    1980'li yıllarda tek başına kalan Bumblebee henüz çok gençtir. Nereye gideceğini bilemeyen ve kimsesi olmayan sarı autobot Bumblebee 1987 yılında sürekli kaçmakta ve saklanmaktadır. Bu süreçte güvenli liman olarak sakin bir Kaliforniya sahil kasabasına sığınmıştır. Charlie ise 18 yaşına basmak üzere olan bir genç kızdır. Bir gün Bumblebee'yi harap halde keşfeder. Çalışma ihtimali olan bir külüstür gördüğünü zanneden genç kadın onu tamir etmek için kolları sıvar. Bumblebee'yi atölyesine götüren ve üzerinde çalışmaya başlayan Charlie, amacına ulaştığında ise bu arabanın sıradan bir "tosbağa" olmadığını keşfeder. Bumblebee ile arkadaşlık kuran Charlie, en yakın arkadaşına dönüşen autobotu peşindeki "decepticon"lardan koruyabilmek için onunla birlikte bir maceraya atılacaktır.

    Oyuncular: Hailee Steinfeld, John Cena, Jorge Lendeborg Jr., John Ortiz, Jason Ian Drucker, Pamela Adlon, Stephen Schneider, Len Cariou, Glynn Turman, Gracie Dzienny

    [Ziyaretçiler üye olmadan, üyelerimiz ise konuya mesaj yazmadan linkleri görüntüleyemezler.Ziyaretçiler üye olmadan, üyelerimiz ise konuya mesaj yazmadan linkleri görüntüleyemezler.]
    FİLMDEN KARELER

    Kod:
    General
    Format         : Matroska
    File size        : 1.87 GiB
    Duration         : 1 h 53 min
    Overall bit rate       : 2 355 kb/s
    Frame rate        : 23.976 FPS
    Video
    Format         : HEVC
    Format/Info        : High Efficiency Video Coding
    Duration         : 1 h 53 min
    Width         : 1 920 pixels
    Height         : 1 080 pixels
    Frame rate        : 23.976 (24000/1001) FPS
    Stream size        : 1.59 GiB (85%)
    Audio #1
    Format         : AAC LC
    Format/Info        : Advanced Audio Codec Low Complexity
    Duration         : 1 h 53 min
    Channel(s)        : 6 channels
    Frame rate        : 46.875 FPS (1024 SPF)
    Stream size        : 182 MiB (10%)
    Language         : English
    Audio #2
    Format         : AAC LC
    Format/Info        : Advanced Audio Codec Low Complexity
    Duration         : 1 h 53 min
    Channel(s)        : 2 channels
    Frame rate        : 43.066 FPS (1024 SPF)
    Stream size        : 105 MiB (5%)
    Language         : Turkish
    Format         : UTF-8
    Duration         : 1 h 48 min
    Frame rate        : 0.167 FPS
    Stream size        : 32.7 KiB (0%)
    Language         : Turkish
    [Ziyaretçiler üye olmadan, üyelerimiz ise konuya mesaj yazmadan linkleri görüntüleyemezler.Ziyaretçiler üye olmadan, üyelerimiz ise konuya mesaj yazmadan linkleri görüntüleyemezler.]
    SuperUp

    turbobit.net, gofile.io, doodrive.com, megaup.net, send.cm, 1fichier.com, mixdrop.ag, pixeldrain.com, streamtape.com, rapidgator.net

  2. Aşağıdaki kullanıcı bu mesajdan dolayı SuperUp teşekkür ediyor

    itom (1 hafta önce)

  3. #2
    Filmrip Üye itom - ait Kullanıcı Resmi (Avatar)
    Üyelik tarihi
    07 Şubat 2023
    Mesajlar
    9,366
    Konular
    0
    Teşekkürleri
    1218
    Tecrübe Puanı
    123

    Standart

    Teşekkürler

Konu Bilgileri

Bu Konuya Gözatan Kullanıcılar

Şu anda 1 kullanıcı bu konuyu görüntülüyor. (0 kayıtlı ve 1 misafir)

Benzer Konular

  1. Transformers: Bumblebee - Bumblebee (2018) 1080p H265 DUAL - TSRG
    Konu Sahibi SuperUp Forum 1080p Türkçe Dublaj
    Cevap: 3
    Son Mesaj : 4 Hafta önce, 13:01
  2. Cevap: 4
    Son Mesaj : 17.Aralık.2023, 15:00
  3. Bumblebee (2018) [2160p] [4K] [BluRay] [5 1] YTS
    Konu Sahibi RobertoW Forum 4K UHD ULTRA HD
    Cevap: 0
    Son Mesaj : 10.Aralık.2023, 11:16
  4. Cevap: 0
    Son Mesaj : 10.Kasım.2023, 12:03
  5. Cevap: 0
    Son Mesaj : 10.Kasım.2023, 12:02

Thread Participants: 1

Bookmarks

Yetkileriniz

  • Konu Acma Yetkiniz Yok
  • Cevap Yazma Yetkiniz Yok
  • Eklenti Yükleme Yetkiniz Yok
  • Mesajınızı Değiştirme Yetkiniz Yok
  •  
1 2 3 4 5 6 7 8 9 10 11 12 13 14 15 16 17 18 19 20 21 22 23 24 25 26 27 28 29 30 31 32 33 34 35 36 37 38 39 40 41 42 43 44 45 46 47 48 49 50 51 52 53 54 55 56 57 58 59 60 61 62 63 64 65 66 67 68 69 70 71 72 73 74 75 76 77 78 79 80 81 82 83 84 85 86 87 88 89 90 91 92 93 94 95 96 97 98 99 100 101 102 103 104 105 106 107 108 109 110 111 112 113 114 115 116 117 118 119 120 121 122 123 124 125 126 127 128 129 130 131 132 133 134 135 136 137 138 139 140 141 142 143 144 145 146 147 148 149 150 151 152 153 154 155 156 157 158 159 160 161 162 163 164 165 166 167 168 169 170 171 172 173 174 175 176 177 178 179 180 181 182 183 184 185 186 187 188 189 190 191 192 193 194 195 196 197 198 199 200 201 202 203 204 205 206 207 208 209 210