Geride Kalanlar - The Holdovers (2023) 1080p DUAL BluRay x264 - HdT

[Ziyaretçiler üye olmadan, üyelerimiz ise konuya mesaj yazmadan linkleri görüntüleyemezler.Ziyaretçiler üye olmadan, üyelerimiz ise konuya mesaj yazmadan linkleri görüntüleyemezler.]
Tür: Komedi, Dram

New England'daki bir hazırlık okulunda çalışan, kimsenin sevmediği huysuz bir öğretmen, gidecek yeri olmayan birkaç öğrenciye nezaret etmek için Noel tatili boyunca okulda kalmak zorunda kalır. Birkaç gün sonra okulda kalan tek öğrenci, -15 yaşındaki zeki ve baş belası Angus- ve oğlunu Vietnam'da yeni kaybetmiş olan okulun şef aşçısı Mary ile beklenmedik bir bağ kurar.

Oyuncular: Paul Giamatti, Dominic Sessa, Da'Vine Joy Randolph, Carrie Preston, Brady Hepner, Ian Dolley, Jim Kaplan, Michael Provost, Andrew Garman, Naheem Garcia

[Ziyaretçiler üye olmadan, üyelerimiz ise konuya mesaj yazmadan linkleri görüntüleyemezler.Ziyaretçiler üye olmadan, üyelerimiz ise konuya mesaj yazmadan linkleri görüntüleyemezler.]
FİLMDEN KARELER

Kod:
General
Format         : Matroska
File size        : 21.2 GiB
Duration         : 2 h 13 min
Overall bit rate       : 22.8 Mb/s
Frame rate        : 23.976 FPS
Video
Format         : AVC
Format/Info        : Advanced Video Codec
Duration         : 2 h 13 min
Width         : 1 800 pixels
Height         : 1 080 pixels
Frame rate        : 23.976 (24000/1001) FPS
Stream size        : 20.1 GiB (95%)
Language         : English
Audio #1
Format         : AC-3
Format/Info        : Audio Coding 3
Duration         : 2 h 13 min
Channel(s)        : 2 channels
Frame rate        : 31.250 FPS (1536 SPF)
Stream size        : 183 MiB (1%)
Language         : Turkish
Audio #2
Format         : E-AC-3
Duration         : 2 h 13 min
Channel(s)        : 6 channels
Frame rate        : 31.250 FPS (1536 SPF)
Stream size        : 977 MiB (4%)
Language         : English
Text #1
Format         : UTF-8
Duration         : 2 h 10 min
Frame rate        : 0.287 FPS
Stream size        : 65.9 KiB (0%)
Language         : English
Text #2
Format         : UTF-8
Duration         : 2 h 12 min
Frame rate        : 0.313 FPS
Stream size        : 73.3 KiB (0%)
Language         : English
Text #3
Format         : UTF-8
Duration         : 2 h 7 min
Frame rate        : 0.218 FPS
Stream size        : 64.7 KiB (0%)
Language         : Turkish
Text #4
Format         : UTF-8
Duration         : 2 h 9 min
Frame rate        : 0.023 FPS
Stream size        : 5.26 KiB (0%)
Language         : Turkish
[Ziyaretçiler üye olmadan, üyelerimiz ise konuya mesaj yazmadan linkleri görüntüleyemezler.Ziyaretçiler üye olmadan, üyelerimiz ise konuya mesaj yazmadan linkleri görüntüleyemezler.]
SuperUp

turbobit.net, gofile.io, doodrive.com, megaup.net, send.cm, 1fichier.com, mixdrop.ag, pixeldrain.com, streamtape.com, rapidgator.net