Toplam 3 adet sonuctan sayfa basi 1 ile 3 arasi kadar sonuc gösteriliyor

Konu: Münih - Munich (2005) 1080p DUAL NF WEB-DL H264 DDP5.1 - TURG

  1. #1
    Super Moderator SuperUp - ait Kullanıcı Resmi (Avatar)
    Üyelik tarihi
    14 Nisan 2024
    Mesajlar
    8,827
    Konular
    8299
    Teşekkürleri
    5856
    Blog Entries
    7850
    Tecrübe Puanı
    586

    Standart Münih - Munich (2005) 1080p DUAL NF WEB-DL H264 DDP5.1 - TURG

    Münih - Munich (2005) 1080p DUAL NF WEB-DL H264 DDP5.1 - TURG

    [Ziyaretçiler üye olmadan, üyelerimiz ise konuya mesaj yazmadan linkleri görüntüleyemezler.Ziyaretçiler üye olmadan, üyelerimiz ise konuya mesaj yazmadan linkleri görüntüleyemezler.]
    Tür: Dram, Aksiyon, Tarih, Gerilim

    1972 Münih olimpiyatlar'ında 11 İsaril'li atlete yönelik inanılmaz katliamın perde arkasını anlatan filmde, İsrail Gizli Servisi Mossad üyelerinden oluşan bir grup, bu işe karıştıklarını düşündükleri Filistinli suikast komandolarını öldürmekle görevlendirilirler. Liderlerini izleyen İsrail'li grup bu operasyonu intikam almak adına yapmaktadır. Ama zamanla kendileri de bir hedef haline geleceklerdir.

    Oyuncular: Eric Bana, Daniel Craig, Ciaran Hinds, Mathieu Kassovitz, Hanns Zischler, Ayelet Zurer, Geoffrey Rush, Gila Almagor, Michael Lonsdale, Mathieu Amalric

    [Ziyaretçiler üye olmadan, üyelerimiz ise konuya mesaj yazmadan linkleri görüntüleyemezler.Ziyaretçiler üye olmadan, üyelerimiz ise konuya mesaj yazmadan linkleri görüntüleyemezler.]
    FİLMDEN KARELER

    Kod:
    General
    Format         : Matroska
    File size        : 9.45 GiB
    Duration         : 2 h 44 min
    Overall bit rate mode     : Variable
    Overall bit rate       : 8 219 kb/s
    Frame rate        : 23.976 FPS
    Video
    Format         : AVC
    Format/Info        : Advanced Video Codec
    Duration         : 2 h 44 min
    Width         : 1 920 pixels
    Height         : 1 080 pixels
    Frame rate        : 23.976 (24000/1001) FPS
    Stream size        : 7.97 GiB (84%)
    Ses 1
    Format         : E-AC-3
    Duration         : 2 h 44 min
    Channel(s)        : 6 channels
    Frame rate        : 31.250 FPS (1536 SPF)
    Stream size        : 753 MiB (8%)
    Language         : English
    Ses 2
    Format         : E-AC-3
    Duration         : 2 h 44 min
    Channel(s)        : 6 channels
    Frame rate        : 31.250 FPS (1536 SPF)
    Stream size        : 753 MiB (8%)
    Language         : Türkçe
    Altyazı  #1
    Format         : UTF-8
    Codec ID/Info       : UTF-8 Plain Altyazı 
    Duration         : 2 h 42 min
    Frame rate        : 0.005 FPS
    Stream size        : 2.02 KiB (0%)
    Language         : Türkçe
    Altyazı  #2
    Format         : UTF-8
    Codec ID/Info       : UTF-8 Plain Altyazı 
    Duration         : 2 h 35 min
    Frame rate        : 0.178 FPS
    Stream size        : 61.4 KiB (0%)
    Language         : Türkçe
    Altyazı  #3
    Format         : UTF-8
    Codec ID/Info       : UTF-8 Plain Altyazı 
    Duration         : 1 h 17 min
    Frame rate        : 0.009 FPS
    Stream size        : 1.73 KiB (0%)
    Language         : English
    Altyazı  #4
    Format         : UTF-8
    Codec ID/Info       : UTF-8 Plain Altyazı 
    Duration         : 2 h 37 min
    Frame rate        : 0.216 FPS
    Stream size        : 69.5 KiB (0%)
    Language         : English
    [Ziyaretçiler üye olmadan, üyelerimiz ise konuya mesaj yazmadan linkleri görüntüleyemezler.Ziyaretçiler üye olmadan, üyelerimiz ise konuya mesaj yazmadan linkleri görüntüleyemezler.]
    Kod:
    https://iniyor.net/tb/48f22100d9432d852fbb4d1411a51367/Munich.2005.1080p.NF.WEB-DL.DDP5.1.H.264-TURG.mkv.html
    SuperUp

    turbobit.net, gofile.io, doodrive.com, megaup.net, send.cm, 1fichier.com, mixdrop.ag, pixeldrain.com, streamtape.com, rapidgator.net
    İNİYOR.NET ÜCRETSİZ DOSYA İNDİRME LİMİTİ:
    GÜNLÜK 1 ADET VE MAX. 10 GB'DIR

    SİTEMİZE DESTEK OLMAK,
    TÜM LİNKLERE REKLAMSIZ VE SINIRSIZCA ERİŞEBİLMEK İÇİN
    VIP YA DA SUPER VIP ÜYELİK SATIN ALMANIZ GEREKLİDİR


    İNİYOR VIP ÜYELİK DETAYLARI İÇİN TIKLAYIN

    Her Ruh Haline Uygun Filmler İNİYOR VIP'te

    10 BİNLERCE İÇERİĞİ İNDİRMEDEN İZLEYİN

    Tüm Oyuncuların BoxSet'leri İNİYOR VIP'te - Üstelik Sürekli Güncel

    İNİYOR.NET İLE İLGİLİ TÜM AÇIKLAMALAR İÇİN BURAYA TIKLAYIN

  2. Aşağıdaki 3 kullanıcımız bu mesaj için SuperUp teşekkür ediyor

    FilmRip ( 3 Gün önce), itom ( 6 Gün önce), nItRo ( 6 Gün önce)

  3. #2
    Filmrip Üye itom - ait Kullanıcı Resmi (Avatar)
    Üyelik tarihi
    07 Şubat 2023
    Mesajlar
    11,565
    Konular
    0
    Teşekkürleri
    1563
    Tecrübe Puanı
    158

    Standart

    Teşekkürler

  4. Aşağıdaki 2 kullanıcımız bu mesaj için itom teşekkür ediyor

    FilmRip ( 3 Gün önce), nItRo ( 6 Gün önce)

  5. #3
    Forum Sahibi FilmRip - ait Kullanıcı Resmi (Avatar)
    Üyelik tarihi
    24 Ocak 2021
    Nereden
    TR Ankara
    Yaş
    59
    Mesajlar
    67,963
    Konular
    36520
    Teşekkürleri
    938774
    Tecrübe Puanı
    10

    Standart

    paylaşım için teşekkür ederim kardeşim

Konu Bilgileri

Bu Konuya Gözatan Kullanıcılar

Şu anda 1 kullanıcı bu konuyu görüntülüyor. (0 kayıtlı ve 1 misafir)

Benzer Konular

  1. Cevap: 1
    Son Mesaj : 4 Gün önce, 17:24
  2. Cevap: 0
    Son Mesaj : 1 hafta önce, 04:50
  3. Cevap: 0
    Son Mesaj : 14.Mayıs.2024, 22:20
  4. Ölü Gelin 2005 Corpse Bride 2005 1080p H264 AAC Dual TR EN
    Konu Sahibi FilmRip Forum Animasyon Filmler
    Cevap: 2
    Son Mesaj : 27.Mart.2024, 16:34
  5. Münih: Savaş Yaklaşıyor 1080p Türkçe Dublaj Indir – Dual
    Konu Sahibi FilmRip Forum BluRay Dual TR-EN Filmler
    Cevap: 0
    Son Mesaj : 18.Şubat.2023, 17:50

Thread Participants: 2

Bookmarks

Yetkileriniz

  • Konu Acma Yetkiniz Yok
  • Cevap Yazma Yetkiniz Yok
  • Eklenti Yükleme Yetkiniz Yok
  • Mesajınızı Değiştirme Yetkiniz Yok
  •  
1 2 3 4 5 6 7 8 9 10 11 12 13 14 15 16 17 18 19 20 21 22 23 24 25 26 27 28 29 30 31 32 33 34 35 36 37 38 39 40 41 42 43 44 45 46 47 48 49 50 51 52 53 54 55 56 57 58 59 60 61 62 63 64 65 66 67 68 69 70 71 72 73 74 75 76 77 78 79 80 81 82 83 84 85 86 87 88 89 90 91 92 93 94 95 96 97 98 99 100 101 102 103 104 105 106 107 108 109 110 111 112 113 114 115 116 117 118 119 120 121 122 123 124 125 126 127 128 129 130 131 132 133 134 135 136 137 138 139 140 141 142 143 144 145 146 147 148 149 150 151 152 153 154 155 156 157 158 159 160 161 162 163 164 165 166 167 168 169 170 171 172 173 174 175 176 177 178 179 180 181 182 183 184 185 186 187 188 189 190 191 192 193 194 195 196 197 198 199