Kaptan Phillips - Captain Phillips (2013) 1080p DUAL BluRay x264 - PRoDJi

[Ziyaretçiler üye olmadan, üyelerimiz ise konuya mesaj yazmadan linkleri görüntüleyemezler.Ziyaretçiler üye olmadan, üyelerimiz ise konuya mesaj yazmadan linkleri görüntüleyemezler.]
Tür: Aksiyon, Dram, Gerilim

Kaptan Phillips/Captain Phillips, yönetmen Paul Greengrass'ın, Amerikan bandralı yük gemisi Maersk Alabama'nın 2009 yılında Somali'li korsanlar tarafından kaçırılmasını konu alan çok katmanlı bir incelemesi. Film, Greengrass'ın gözünden, olayın çok sayıdaki global etkisini, hem çok heyecanlı bir gerilim olarak, hem de karmaşık bir portre olarak sunuyor. Film, Alabama'nın yönetici kaptanı Richard Phillips ile onun Somali'li muadili Muse arasındaki ilişkiye odaklanıyor. Film, Akademi Ödülü® adayı Paul Greengrass tarafından yönetildi. Senaryo Billy Ray tarafından yazıldı...

Oyuncular: Tom Hanks, Barkhad Abdi, Barkhad Abdirahman, Faysal Ahmed, Mahat M. Ali, Michael Chernus, David Warshofsky, Corey Johnson, Chris Mulkey, Yul Vazquez

[Ziyaretçiler üye olmadan, üyelerimiz ise konuya mesaj yazmadan linkleri görüntüleyemezler.Ziyaretçiler üye olmadan, üyelerimiz ise konuya mesaj yazmadan linkleri görüntüleyemezler.]
FİLMDEN KARELER

Kod:
General
Format         : Matroska
File size        : 9.33 GiB
Duration         : 2 h 14 min
Overall bit rate       : 9 958 kb/s
Frame rate        : 23.976 FPS
Video
Format         : AVC
Format/Info        : Advanced Video Codec
Duration         : 2 h 14 min
Width         : 1 920 pixels
Height         : 800 pixels
Frame rate        : 23.976 (24000/1001) FPS
Stream size        : 7.13 GiB (76%)
Language         : English
Ses 1
Format         : AC-3
Format/Info        : Audio Coding 3
Duration         : 2 h 14 min
Channel(s)        : 6 channels
Frame rate        : 31.250 FPS (1536 SPF)
Stream size        : 614 MiB (6%)
Language         : Türkçe
Ses 2
Format         : DTS
Duration         : 2 h 14 min
Channel(s)        : 6 channels
Frame rate        : 93.750 FPS (512 SPF)
Stream size        : 1.41 GiB (15%)
Language         : English
Altyazı  #1
Format         : UTF-8
Codec ID/Info       : UTF-8 Plain Altyazı 
Language         : English
Altyazı  #2
Format         : UTF-8
Codec ID/Info       : UTF-8 Plain Altyazı 
Language         : Türkçe
[Ziyaretçiler üye olmadan, üyelerimiz ise konuya mesaj yazmadan linkleri görüntüleyemezler.Ziyaretçiler üye olmadan, üyelerimiz ise konuya mesaj yazmadan linkleri görüntüleyemezler.]
Kod:
https://iniyor.net/tb/47cdcd17f468b9dc2e63d38ccb7d8140/Captain.Phillips.2013.BluRay.1080p.DTS.x264-PRoDJi.mkv.html
SuperUp

turbobit.net, gofile.io, doodrive.com, megaup.net, send.cm, 1fichier.com, mixdrop.ag, pixeldrain.com, streamtape.com, rapidgator.net