Cyrano de Bergerac (1990) 1080p DUAL BluRay x264 - PRoDJi

[Ziyaretçiler üye olmadan, üyelerimiz ise konuya mesaj yazmadan linkleri görüntüleyemezler.Ziyaretçiler üye olmadan, üyelerimiz ise konuya mesaj yazmadan linkleri görüntüleyemezler.]
Tür: Dram, Komedi, Tarih, Romantik

Kralın silahşörlerinden Cryano de Bergerac, hem cesareti ve romantizmi hem de güçlü şiirselliği ile enfes bir figürdür. Ne var ki kadınların gönlünü fethedecek bir beyaz atlı prens olmakla arasında önemli bir engel vardır: devasa bir burun! Üstüne, Cyrano'nun hayallerini süsleyen genç ve güzel Roxanne, birliğe yeni katılan yakışıklı çömez Christian'ın da ilgisini çeker.

Oyuncular: Gerard Depardieu, Anne Brochet, Vincent Perez, Jacques Weber, Roland Bertin, Pierre Maguelon, Josiane Stoleru, Alain Rimoux, Anatole Delalande

[Ziyaretçiler üye olmadan, üyelerimiz ise konuya mesaj yazmadan linkleri görüntüleyemezler.Ziyaretçiler üye olmadan, üyelerimiz ise konuya mesaj yazmadan linkleri görüntüleyemezler.]
FİLMDEN KARELER

Kod:
General
Format         : Matroska
File size        : 10.2 GiB
Duration         : 2 h 18 min
Overall bit rate       : 10.5 Mb/s
Frame rate        : 23.976 FPS
Video
Format         : AVC
Format/Info        : Advanced Video Codec
Duration         : 2 h 18 min
Width         : 1 784 pixels
Height         : 1 080 pixels
Frame rate        : 23.976 (24000/1001) FPS
Stream size        : 8.55 GiB (84%)
Language         : English
Ses 1
Format         : AC-3
Format/Info        : Audio Coding 3
Duration         : 2 h 18 min
Channel(s)        : 2 channels
Frame rate        : 31.250 FPS (1536 SPF)
Stream size        : 190 MiB (2%)
Language         : Türkçe
Ses 2
Format         : DTS
Duration         : 2 h 18 min
Channel(s)        : 6 channels
Frame rate        : 93.750 FPS (512 SPF)
Stream size        : 1.46 GiB (14%)
Language         : French
Altyazı  #1
Format         : UTF-8
Codec ID/Info       : UTF-8 Plain Altyazı 
Duration         : 2 h 13 min
Frame rate        : 0.208 FPS
Stream size        : 63.9 KiB (0%)
Language         : Türkçe
Altyazı  #2
Format         : PGS
Duration         : 2 h 18 min
Frame rate        : 0.454 FPS
Stream size        : 28.8 MiB (0%)
Language         : English
[Ziyaretçiler üye olmadan, üyelerimiz ise konuya mesaj yazmadan linkleri görüntüleyemezler.Ziyaretçiler üye olmadan, üyelerimiz ise konuya mesaj yazmadan linkleri görüntüleyemezler.]
Kod:
https://iniyor.net/tb/19e36a089cc778bca7d6fc7f02159728/Cyrano.de.Bergerac.1990.BluRay.1080p.DTS.x264-PRoDJi.mkv.html
SuperUp

turbobit.net, gofile.io, doodrive.com, megaup.net, send.cm, 1fichier.com, mixdrop.ag, pixeldrain.com, streamtape.com, rapidgator.net