İtiraf - Calvary (2014) 1080p DUAL BluRay x264 - PRoDJi

[Ziyaretçiler üye olmadan, üyelerimiz ise konuya mesaj yazmadan linkleri görüntüleyemezler.Ziyaretçiler üye olmadan, üyelerimiz ise konuya mesaj yazmadan linkleri görüntüleyemezler.]
Tür: Dram

In Bruges'ün yönetmeni Martin McDonagh'ın abisi John McDonagh'ın yönettiği İnfaz bir kara komedi... Günün birinde bir adam günah çıkartmak üzere Rahip James'e gelir ve hiçbir kusuru olmadığı için bir hafta içinde onu öldüreceğini söyler. Şaşırıp kalan James diğer rahiplerden kendisine bu konuda bir öğüt vermelerini ister. Ancak, ölüm hazırlıkları devam ederken, kısa süre önce intihara kalkışmış olan kızının çıkıp gelmesiyle işler iyice karışır. Yedi gün içinde Rahip James'in hem bu adamın kim olduğunu bulması, hem son hazırlıkları yapması, hem de çivisi çıkmış köyünün sırrını çözmesi gerekecektir...

Oyuncular: Brendan Gleeson, Kelly Reilly, Aidan Gillen, Dylan Moran, Isaach De Bankole, M. Emmet Walsh, Domhnall Gleeson, David Wilmot

[Ziyaretçiler üye olmadan, üyelerimiz ise konuya mesaj yazmadan linkleri görüntüleyemezler.Ziyaretçiler üye olmadan, üyelerimiz ise konuya mesaj yazmadan linkleri görüntüleyemezler.]
Kod:
General
Format         : Matroska
File size        : 5.97 GiB
Duration         : 1 h 41 min
Overall bit rate       : 8 415 kb/s
Frame rate        : 24.000 FPS
Video
Format         : AVC
Format/Info        : Advanced Video Codec
Duration         : 1 h 41 min
Width         : 1 920 pixels
Height         : 816 pixels
Frame rate        : 24.000 FPS
Stream size        : 4.76 GiB (80%)
Language         : English
Ses 1
Format         : AC-3
Format/Info        : Audio Coding 3
Duration         : 1 h 41 min
Channel(s)        : 2 channels
Frame rate        : 31.250 FPS (1536 SPF)
Stream size        : 139 MiB (2%)
Language         : Türkçe
Ses 2
Format         : DTS
Duration         : 1 h 41 min
Channel(s)        : 6 channels
Frame rate        : 93.750 FPS (512 SPF)
Stream size        : 1.07 GiB (18%)
Language         : English
Altyazı  #1
Format         : UTF-8
Codec ID/Info       : UTF-8 Plain Altyazı 
Duration         : 1 h 36 min
Frame rate        : 0.170 FPS
Stream size        : 44.8 KiB (0%)
Language         : Türkçe
Altyazı  #2
Format         : UTF-8
Codec ID/Info       : UTF-8 Plain Altyazı 
Duration         : 1 h 35 min
Frame rate        : 0.203 FPS
Stream size        : 44.3 KiB (0%)
Language         : English
[Ziyaretçiler üye olmadan, üyelerimiz ise konuya mesaj yazmadan linkleri görüntüleyemezler.Ziyaretçiler üye olmadan, üyelerimiz ise konuya mesaj yazmadan linkleri görüntüleyemezler.]
Kod:
https://iniyor.net/tb/9fdc35573f1d829863348a41411f796b/Calvary.2014.BluRay.1080p.DTS.x264-PRoDJi.mkv.html
SuperUp

turbobit.net, gofile.io, doodrive.com, megaup.net, send.cm, 1fichier.com, mixdrop.ag, pixeldrain.com, streamtape.com, rapidgator.net