Toplam 1 adet sonuctan sayfa basi 1 ile 1 arasi kadar sonuc gösteriliyor

Konu: Transformers: Bumblebee - Bumblebee (2018) 1080p DUAL BluRay x264 - PRoDJi

  1. #1
    Super Moderator SuperUp - ait Kullanıcı Resmi (Avatar)
    Üyelik tarihi
    14 Nisan 2024
    Mesajlar
    8,973
    Konular
    8439
    Teşekkürleri
    5890
    Blog Entries
    7995
    Tecrübe Puanı
    590

    Standart Transformers: Bumblebee - Bumblebee (2018) 1080p DUAL BluRay x264 - PRoDJi

    Transformers: Bumblebee - Bumblebee (2018) 1080p DUAL BluRay x264 - PRoDJi

    [Ziyaretçiler üye olmadan, üyelerimiz ise konuya mesaj yazmadan linkleri görüntüleyemezler.Ziyaretçiler üye olmadan, üyelerimiz ise konuya mesaj yazmadan linkleri görüntüleyemezler.]
    Tür: Aksiyon, Macera, Bilim-Kurgu

    1980'li yıllarda tek başına kalan Bumblebee henüz çok gençtir. Nereye gideceğini bilemeyen ve kimsesi olmayan sarı autobot Bumblebee 1987 yılında sürekli kaçmakta ve saklanmaktadır. Bu süreçte güvenli liman olarak sakin bir Kaliforniya sahil kasabasına sığınmıştır. Charlie ise 18 yaşına basmak üzere olan bir genç kızdır. Bir gün Bumblebee'yi harap halde keşfeder. Çalışma ihtimali olan bir külüstür gördüğünü zanneden genç kadın onu tamir etmek için kolları sıvar. Bumblebee'yi atölyesine götüren ve üzerinde çalışmaya başlayan Charlie, amacına ulaştığında ise bu arabanın sıradan bir "tosbağa" olmadığını keşfeder. Bumblebee ile arkadaşlık kuran Charlie, en yakın arkadaşına dönüşen autobotu peşindeki "decepticon"lardan koruyabilmek için onunla birlikte bir maceraya atılacaktır.

    Oyuncular: Hailee Steinfeld, John Cena, Jorge Lendeborg Jr., John Ortiz, Jason Ian Drucker, Pamela Adlon, Stephen Schneider, Len Cariou, Glynn Turman, Gracie Dzienny

    [Ziyaretçiler üye olmadan, üyelerimiz ise konuya mesaj yazmadan linkleri görüntüleyemezler.Ziyaretçiler üye olmadan, üyelerimiz ise konuya mesaj yazmadan linkleri görüntüleyemezler.]
    FİLMDEN KARELER

    Kod:
    General
    Format         : Matroska
    File size        : 9.84 GiB
    Duration         : 1 h 53 min
    Overall bit rate       : 12.4 Mb/s
    Frame rate        : 23.976 FPS
    Video
    Format         : AVC
    Format/Info        : Advanced Video Codec
    Duration         : 1 h 53 min
    Width         : 1 920 pixels
    Height         : 1 080 pixels
    Frame rate        : 23.976 FPS
    Stream size        : 7.93 GiB (81%)
    Language         : English
    Ses 1
    Format         : DTS
    Duration         : 1 h 53 min
    Channel(s)        : 6 channels
    Frame rate        : 93.750 FPS (512 SPF)
    Stream size        : 1.20 GiB (12%)
    Language         : English
    Ses 2
    Format         : AC-3
    Format/Info        : Audio Coding 3
    Duration         : 1 h 53 min
    Channel(s)        : 6 channels
    Frame rate        : 31.250 FPS (1536 SPF)
    Stream size        : 521 MiB (5%)
    Language         : Türkçe
    Altyazı  #1
    Format         : PGS
    Language         : English
    Altyazı  #2
    Format         : PGS
    Language         : Danish
    Altyazı  #3
    Format         : PGS
    Language         : Dutch
    Altyazı  #4
    Format         : PGS
    Language         : Finnish
    Altyazı  #5
    Format         : PGS
    Language         : Türkçe
    [Ziyaretçiler üye olmadan, üyelerimiz ise konuya mesaj yazmadan linkleri görüntüleyemezler.Ziyaretçiler üye olmadan, üyelerimiz ise konuya mesaj yazmadan linkleri görüntüleyemezler.]
    Kod:
    https://iniyor.net/tb/651c6e2701fb36d1285304b7023db7d9/Bumblebee.2018.BluRay.1080p.DTS.x264-PRoDJi.mkv.html
    SuperUp

    turbobit.net, gofile.io, doodrive.com, megaup.net, send.cm, 1fichier.com, mixdrop.ag, pixeldrain.com, streamtape.com, rapidgator.net
    İNİYOR.NET ÜCRETSİZ DOSYA İNDİRME LİMİTİ:
    GÜNLÜK 1 ADET VE MAX. 10 GB'DIR

    SİTEMİZE DESTEK OLMAK,
    TÜM LİNKLERE REKLAMSIZ VE SINIRSIZCA ERİŞEBİLMEK İÇİN
    VIP YA DA SUPER VIP ÜYELİK SATIN ALMANIZ GEREKLİDİR


    İNİYOR VIP ÜYELİK DETAYLARI İÇİN TIKLAYIN

    Her Ruh Haline Uygun Filmler İNİYOR VIP'te

    10 BİNLERCE İÇERİĞİ İNDİRMEDEN İZLEYİN

    Tüm Oyuncuların BoxSet'leri İNİYOR VIP'te - Üstelik Sürekli Güncel

    İNİYOR.NET İLE İLGİLİ TÜM AÇIKLAMALAR İÇİN BURAYA TIKLAYIN

  2. Aşağıdaki kullanıcı bu mesajdan dolayı SuperUp teşekkür ediyor

    nItRo (1 hafta önce)

Konu Bilgileri

Bu Konuya Gözatan Kullanıcılar

Şu anda 1 kullanıcı bu konuyu görüntülüyor. (0 kayıtlı ve 1 misafir)

Benzer Konular

  1. Transformers: Bumblebee - Bumblebee (2018) 2160p UHD BluRay x265 DUAL
    Konu Sahibi SuperUp Forum 4K & 2160p Türkçe Dublaj
    Cevap: 1
    Son Mesaj : 12.Haziran.2024, 20:18
  2. Transformers: Bumblebee - Bumblebee (2018) 1080p DUAL BluRay x265
    Konu Sahibi SuperUp Forum 1080p Türkçe Dublaj
    Cevap: 1
    Son Mesaj : 12.Haziran.2024, 20:14
  3. Cevap: 2
    Son Mesaj : 12.Haziran.2024, 17:33
  4. Cevap: 0
    Son Mesaj : 10.Haziran.2024, 23:30
  5. Transformers: Bumblebee - Bumblebee (2018) 1080p H265 DUAL - TSRG
    Konu Sahibi SuperUp Forum 1080p Türkçe Dublaj
    Cevap: 3
    Son Mesaj : 22.Mayıs.2024, 13:01

Bookmarks

Yetkileriniz

  • Konu Acma Yetkiniz Yok
  • Cevap Yazma Yetkiniz Yok
  • Eklenti Yükleme Yetkiniz Yok
  • Mesajınızı Değiştirme Yetkiniz Yok
  •  
1 2 3 4 5 6 7 8 9 10 11 12 13 14 15 16 17 18 19 20 21 22 23 24 25 26 27 28 29 30 31 32 33 34 35 36 37 38 39 40 41 42 43 44 45 46 47 48 49 50 51 52 53 54 55 56 57 58 59 60 61 62 63 64 65 66 67 68 69 70 71 72 73 74 75 76 77 78 79 80 81 82 83 84 85 86 87 88 89 90 91 92 93 94 95 96 97 98 99 100 101 102 103 104 105 106 107 108 109 110 111 112 113 114 115 116 117 118 119 120 121 122 123 124 125 126 127 128 129 130 131 132 133 134 135 136 137 138 139 140 141 142 143 144 145 146 147 148 149 150 151 152 153 154 155 156 157 158 159 160 161 162 163 164 165 166 167 168 169 170 171 172 173 174 175 176 177 178 179 180 181 182 183 184 185 186 187 188 189 190 191 192 193 194 195 196 197 198 199 200