Çocukluk - Boyhood (2014) 1080p DUAL BluRay x264 - PRoDJi

[Ziyaretçiler üye olmadan, üyelerimiz ise konuya mesaj yazmadan linkleri görüntüleyemezler.Ziyaretçiler üye olmadan, üyelerimiz ise konuya mesaj yazmadan linkleri görüntüleyemezler.]
Tür: Dram

En son Before Midnight filmiyle izleyici karşısına çıkan Richard Linklater'ın senaryosunu yazıp yönettiği film, çıkış noktası olarak yakın zamanda boşanmış bir çiftin, Mason ve Olivia'nın hikayesine odaklanıyor. Sahip oldukları tek çocukları ise artık anne ve babasının bir arada yaşamadığı gerçeğine alışmak ve bu yabancı düzen içerisinde yaşamayı öğrenmek zorunda. Çocuğun 6 yaşında başlayan bu yeni tecrübesini 12 yıl boyunca sürecek olan bir büyüme evresine yayan yönetmen, bu süreç boyunca yaşananları beyaz perdeye aktarıyor.

Oyuncular: Ellar Coltrane, Patricia Arquette, Ethan Hawke, Lorelei Linklater, Libby Villari, Marco Perella, Brad Hawkins, Jamie Howard, Andrew Villarreal, Jenni Tooley

[Ziyaretçiler üye olmadan, üyelerimiz ise konuya mesaj yazmadan linkleri görüntüleyemezler.Ziyaretçiler üye olmadan, üyelerimiz ise konuya mesaj yazmadan linkleri görüntüleyemezler.]
FİLMDEN KARELER

Kod:
General
Format         : Matroska
File size        : 12.5 GiB
Duration         : 2 h 45 min
Overall bit rate       : 10.8 Mb/s
Frame rate        : 23.976 FPS
Video
Format         : AVC
Format/Info        : Advanced Video Codec
Duration         : 2 h 45 min
Width         : 1 920 pixels
Height         : 1 040 pixels
Frame rate        : 23.976 (24000/1001) FPS
Stream size        : 10.3 GiB (82%)
Language         : English
Ses 1
Format         : AC-3
Format/Info        : Audio Coding 3
Duration         : 2 h 45 min
Channel(s)        : 6 channels
Frame rate        : 31.250 FPS (1536 SPF)
Stream size        : 455 MiB (4%)
Language         : Türkçe
Ses 2
Format         : DTS
Duration         : 2 h 45 min
Channel(s)        : 6 channels
Frame rate        : 93.750 FPS (512 SPF)
Stream size        : 1.75 GiB (14%)
Language         : English
Altyazı  #1
Format         : UTF-8
Codec ID/Info       : UTF-8 Plain Altyazı 
Duration         : 2 h 39 min
Frame rate        : 0.343 FPS
Stream size        : 108 KiB (0%)
Language         : English
Altyazı  #2
Format         : UTF-8
Codec ID/Info       : UTF-8 Plain Altyazı 
Duration         : 2 h 39 min
Frame rate        : 0.237 FPS
Stream size        : 86.9 KiB (0%)
Language         : Türkçe
[Ziyaretçiler üye olmadan, üyelerimiz ise konuya mesaj yazmadan linkleri görüntüleyemezler.Ziyaretçiler üye olmadan, üyelerimiz ise konuya mesaj yazmadan linkleri görüntüleyemezler.]
Kod:
https://iniyor.net/tb/5f4da2b53df3f12004889bfcb3a9f642/Boyhood.2014.BluRay.1080p.DTS.x264-PRoDJi.mkv.html
SuperUp

turbobit.net, gofile.io, doodrive.com, megaup.net, send.cm, 1fichier.com, mixdrop.ag, pixeldrain.com, streamtape.com, rapidgator.net