Brokedown Palace (1999) 1080p DUAL BluRay x264 - PRoDJi

[Ziyaretçiler üye olmadan, üyelerimiz ise konuya mesaj yazmadan linkleri görüntüleyemezler.Ziyaretçiler üye olmadan, üyelerimiz ise konuya mesaj yazmadan linkleri görüntüleyemezler.]
Tür: Dram, Gerilim, Gizem

Bu heyecan dolu gerilimde, Claire Danes ve Kate Beckinsale hayalini kurdukları tatilleri kabusa dönüşen iki en iyi arkadaşı oynuyorlar. Alice (Danes) düşüncesiz ve umarsızdır; Darlene (Beckinsale) ise içine kapanık birisidir. Ama her ikisi de aynı esrarengiz erkekten hoşlandıklarında, tedbiri elden bırakır ve bir anda hayatları sonsuza dek değişir. Artık yabancı topraklardadırlar, ve çok geç olmadan masumiyetlerini kanıtlamalıdırlar. Bu akıcı (People Magazine) kendini bulma ve sonsuz özveri ve arkadaşlık hikayesinde Bill Pullman'da yeralıyor.

Oyuncular: Claire Danes, Kate Beckinsale, Bill Pullman, Jacqueline Kim, Lou Diamond Phillips, Daniel Lapaine, Tom Amandes, Aimee Graham, John Doe, Lim Kay Tong

[Ziyaretçiler üye olmadan, üyelerimiz ise konuya mesaj yazmadan linkleri görüntüleyemezler.Ziyaretçiler üye olmadan, üyelerimiz ise konuya mesaj yazmadan linkleri görüntüleyemezler.]
Kod:
General
Format         : Matroska
File size        : 6.01 GiB
Duration         : 1 h 40 min
Overall bit rate       : 8 544 kb/s
Frame rate        : 23.976 FPS
Video
Format         : AVC
Format/Info        : Advanced Video Codec
Duration         : 1 h 40 min
Width         : 1 910 pixels
Height         : 822 pixels
Frame rate        : 23.976 (24000/1001) FPS
Stream size        : 5.29 GiB (88%)
Ses 1
Format         : E-AC-3
Duration         : 1 h 40 min
Channel(s)        : 6 channels
Frame rate        : 31.250 FPS (1536 SPF)
Stream size        : 184 MiB (3%)
Language         : Türkçe
Ses 2
Format         : DTS
Duration         : 1 h 40 min
Channel(s)        : 6 channels
Frame rate        : 93.750 FPS (512 SPF)
Stream size        : 553 MiB (9%)
Language         : English
Altyazı  #1
Format         : PGS
Stream size        : 0.00 Byte (0%)
Language         : English
Altyazı  #2
Format         : PGS
Stream size        : 0.00 Byte (0%)
Language         : German
Altyazı  #3
Format         : UTF-8
Codec ID/Info       : UTF-8 Plain Altyazı 
Duration         : 1 h 39 min
Frame rate        : 0.144 FPS
Stream size        : 31.7 KiB (0%)
Language         : Türkçe
Altyazı  #4
Format         : UTF-8
Codec ID/Info       : UTF-8 Plain Altyazı 
Duration         : 1 h 17 min
Frame rate        : 0.002 FPS
Stream size        : 408 Bytes (0%)
Language         : Türkçe
[Ziyaretçiler üye olmadan, üyelerimiz ise konuya mesaj yazmadan linkleri görüntüleyemezler.Ziyaretçiler üye olmadan, üyelerimiz ise konuya mesaj yazmadan linkleri görüntüleyemezler.]
Kod:
https://iniyor.net/tb/83743b184f1d75174f025cd4ab1b6618/Brokedown.Palace.1999.BluRay.1080p.DTS.x264-PRoDJi.mkv.html
SuperUp

turbobit.net, gofile.io, doodrive.com, megaup.net, send.cm, 1fichier.com, mixdrop.ag, pixeldrain.com, streamtape.com, rapidgator.net