The Last Queen - El akhira (2022) 1080p DUAL BluRay x264 - HdT

[Ziyaretçiler üye olmadan, üyelerimiz ise konuya mesaj yazmadan linkleri görüntüleyemezler.Ziyaretçiler üye olmadan, üyelerimiz ise konuya mesaj yazmadan linkleri görüntüleyemezler.]
Tür: Macera, Tarih, Dram

1516 yılında Cezayir'in karanlık ve çalkantılı atmosferinde geçen olaylar, dönemin İspanyol sömürgeciliğinin zulmü altında inleyen bir toplumu konu ediniyor. İşte tam bu kaos ortamında, Osmanlı İmparatorluğu'nun denizlerin efendisi Barbaros Hayrettin Paşa'nın kararlılığıyla bir dönüm noktası yaşanır. İspanyolların baskısından kurtulan Cezayir, yerel krallığın yeniden kontrolü altına girer. Ancak tüm bu değişim ve umut dolu anların ortasında, Kral Salim Toumi'nin gizemli bir şekilde ölümüyle olaylar yeni bir döneme işaret eder. Ortaya atılan iddialar, bu ölümün Barbaros Hayrettin Paşa'nın entrikalarıyla ilişkilendirilmesine neden olur. Karmaşık bir siyasi entrika ve suikast bulutları Cezayir'in üzerine çökerken, cesur ve kararlı Kraliçe Zaphira sahneye çıkar. Zaphira, cesareti ve stratejik zekasıyla donanmış bir lider olarak, Cezayir'in özgürlüğü için mücadele etmeye başlar. Ancak bu mücadele onu tehlikeli engellerle ve ölüm tehditleriyle karşı karşıya bırakır.

Oyuncular: Adila Bendimerad, Dali Benssalah, Dimitri Boetto, Tahar Zaoui, Imen Noel, Nadia Tereszkiewicz, Yanis Aouine, Ahmed Zitouni, Tarik Bouarrara, Tenou Khilouli

[Ziyaretçiler üye olmadan, üyelerimiz ise konuya mesaj yazmadan linkleri görüntüleyemezler.Ziyaretçiler üye olmadan, üyelerimiz ise konuya mesaj yazmadan linkleri görüntüleyemezler.]
FİLMDEN KARELER

Kod:
General
Format         : Matroska
File size        : 14.6 GiB
Duration         : 1 h 53 min
Overall bit rate       : 18.5 Mb/s
Frame rate        : 24.000 FPS
Video
Format         : AVC
Format/Info        : Advanced Video Codec
Duration         : 1 h 53 min
Width         : 1 920 pixels
Height         : 1 036 pixels
Frame rate        : 24.000 FPS
Stream size        : 13.6 GiB (93%)
Ses 1
Format         : AC-3
Format/Info        : Audio Coding 3
Duration         : 1 h 53 min
Channel(s)        : 2 channels
Frame rate        : 31.250 FPS (1536 SPF)
Stream size        : 156 MiB (1%)
Language         : Türkçe
Ses 2
Format         : E-AC-3
Duration         : 1 h 53 min
Channel(s)        : 6 channels
Frame rate        : 31.250 FPS (1536 SPF)
Stream size        : 830 MiB (6%)
Language         : Arabic
Altyazı  #1
Format         : UTF-8
Codec ID/Info       : UTF-8 Plain Altyazı 
Duration         : 1 h 46 min
Frame rate        : 0.196 FPS
Stream size        : 32.5 KiB (0%)
Language         : English
Altyazı  #2
Format         : PGS
Duration         : 1 h 46 min
Frame rate        : 0.393 FPS
Stream size        : 16.9 MiB (0%)
Language         : English
Altyazı  #3
Format         : PGS
Duration         : 1 h 44 min
Frame rate        : 0.391 FPS
Stream size        : 16.4 MiB (0%)
Language         : French
Altyazı  #4
Format         : UTF-8
Codec ID/Info       : UTF-8 Plain Altyazı 
Duration         : 1 h 46 min
Frame rate        : 0.199 FPS
Stream size        : 38.5 KiB (0%)
Language         : Türkçe
Altyazı  #5
Format         : UTF-8
Codec ID/Info       : UTF-8 Plain Altyazı 
Duration         : 1 h 46 min
Frame rate        : 0.004 FPS
Stream size        : 990 Bytes (0%)
Language         : Türkçe
[Ziyaretçiler üye olmadan, üyelerimiz ise konuya mesaj yazmadan linkleri görüntüleyemezler.Ziyaretçiler üye olmadan, üyelerimiz ise konuya mesaj yazmadan linkleri görüntüleyemezler.]
Kod:
https://iniyor.net/tb/ca2a8024d2c4874071af934a6789e225/The%20Last%20Queen%20aka%20El%20akhira%202022%201080p%20DUAL%20BluRay%20x264%20E-AC3%205.1%20-%20PTer%20HdT.mkv.html
SuperUp

turbobit.net, gofile.io, doodrive.com, megaup.net, send.cm, 1fichier.com, mixdrop.ag, pixeldrain.com, streamtape.com, rapidgator.net