Toplam 4 adet sonuctan sayfa basi 1 ile 4 arasi kadar sonuc gösteriliyor

Konu: Kudüs Fatihi - Selahaddin Eyyubi Sezon Finali 28. Bölüm 1080p WEB-DL H264 - TURG

  1. #1
    Super Moderator SuperUp - ait Kullanıcı Resmi (Avatar)
    Üyelik tarihi
    14 Nisan 2024
    Mesajlar
    6,023
    Konular
    5685
    Teşekkürleri
    3611
    Blog Entries
    1845
    Tecrübe Puanı
    362

    Standart Kudüs Fatihi - Selahaddin Eyyubi Sezon Finali 28. Bölüm 1080p WEB-DL H264 - TURG

    Kudüs Fatihi - Selahaddin Eyyubi Sezon Finali 28. Bölüm 1080p WEB-DL H264 - TURG

    [Ziyaretçiler üye olmadan, üyelerimiz ise konuya mesaj yazmadan linkleri görüntüleyemezler.Ziyaretçiler üye olmadan, üyelerimiz ise konuya mesaj yazmadan linkleri görüntüleyemezler.]
    Tür: Dram,

    Selahaddin Eyyübi'nin hayat amacı da bu doğrultuda ilerlemektedir. Öyle ki Sultan Selahaddin Eyyübi, 'Cihana adalet Kudüs'e hürriyet' anlayışıyla yetişmiştir. Dolayısıyla dizi Kudüs Fatihi Sultan Selahaddin Eyyübi'nin, kutsal toprakları tekrardan İslam dünyasına kazandırma mücadelesini konu almaktadır.

    Kod:
    General
    Format         : Matroska
    File size        : 3.32 GiB
    Duration         : 2 h 16 min
    Overall bit rate mode     : Variable
    Overall bit rate       : 3 487 kb/s
    Frame rate        : 25.000 FPS
    Video
    Format         : AVC
    Format/Info        : Advanced Video Codec
    Duration         : 2 h 16 min
    Width         : 1 920 pixels
    Height         : 1 080 pixels
    Frame rate        : 25.000 FPS
    Stream size        : 3.13 GiB (94%)
    Audio
    Format         : AAC LC
    Format/Info        : Advanced Audio Codec Low Complexity
    Duration         : 2 h 16 min
    Channel(s)        : 2 channels
    Frame rate        : 46.875 FPS (1024 SPF)
    Stream size        : 193 MiB (6%)
    Language         : Turkish
    [Ziyaretçiler üye olmadan, üyelerimiz ise konuya mesaj yazmadan linkleri görüntüleyemezler.Ziyaretçiler üye olmadan, üyelerimiz ise konuya mesaj yazmadan linkleri görüntüleyemezler.]
    SuperUp

    turbobit.net, gofile.io, doodrive.com, megaup.net, send.cm, 1fichier.com, mixdrop.ag, pixeldrain.com, streamtape.com, rapidgator.net

  2. Aşağıdaki 2 kullanıcımız bu mesaj için SuperUp teşekkür ediyor

    FilmRip (1 hafta önce), nItRo (1 hafta önce)

  3. #2
    Filmrip Üye since1984 - ait Kullanıcı Resmi (Avatar)
    Üyelik tarihi
    27 Ocak 2024
    Mesajlar
    366
    Konular
    0
    Teşekkürleri
    540
    Tecrübe Puanı
    55

    Standart

    Teşekkürler

  4. Aşağıdaki 2 kullanıcımız bu mesaj için since1984 teşekkür ediyor

    FilmRip (1 hafta önce), nItRo (1 hafta önce)

  5. #3
    Forum Sahibi FilmRip - ait Kullanıcı Resmi (Avatar)
    Üyelik tarihi
    24 Ocak 2021
    Nereden
    TR Ankara
    Yaş
    59
    Mesajlar
    43,529
    Konular
    36945
    Teşekkürleri
    437696
    Tecrübe Puanı
    10

    Standart

    teşekkür ederim kardeşim

  6. Aşağıdaki 2 kullanıcımız bu mesaj için FilmRip teşekkür ediyor

    FilmRip (1 hafta önce), nItRo (1 hafta önce)

  7. #4
    Filmrip Üye ardizl5665 - ait Kullanıcı Resmi (Avatar)
    Üyelik tarihi
    10 Şubat 2023
    Mesajlar
    600
    Konular
    0
    Teşekkürleri
    402
    Tecrübe Puanı
    42

    Standart

    Admin Sağol

  8. Aşağıdaki 2 kullanıcımız bu mesaj için ardizl5665 teşekkür ediyor

    FilmRip (1 hafta önce), nItRo (1 hafta önce)

Konu Bilgileri

Bu Konuya Gözatan Kullanıcılar

Şu anda 1 kullanıcı bu konuyu görüntülüyor. (0 kayıtlı ve 1 misafir)

Benzer Konular

  1. Kudüs Fatihi - Selahaddin Eyyubi 26. Bölüm 720p WEB-DL H264 - TURG
    Konu Sahibi SuperUp Forum 720p Yerli Diziler
    Cevap: 0
    Son Mesaj : 3 Hafta önce, 07:32
  2. Kudüs Fatihi - Selahaddin Eyyubi 26. Bölüm 1080p WEB-DL H264 - TURG
    Konu Sahibi SuperUp Forum 1080p Yerli Diziler
    Cevap: 0
    Son Mesaj : 3 Hafta önce, 07:30
  3. Kudüs Fatihi - Selahaddin Eyyubi 25. Bölüm 720p WEB-DL H264 - TURG
    Konu Sahibi SuperUp Forum 720p Yerli Diziler
    Cevap: 1
    Son Mesaj : 3 Hafta önce, 05:03
  4. Kudüs Fatihi - Selahaddin Eyyubi 25. Bölüm 1080p WEB-DL H264 - TURG
    Konu Sahibi SuperUp Forum 1080p Yerli Diziler
    Cevap: 2
    Son Mesaj : 3 Hafta önce, 19:47
  5. Kudüs Fatihi Selahaddin Eyyubi 06.BLM 25.12.2023 1080p WebDL H264 AAC -TURG
    Konu Sahibi mnike Forum Selahaddin Eyyubi İndir
    Cevap: 5
    Son Mesaj : 30.Aralık.2023, 21:09

Thread Participants: 3

Bookmarks

Yetkileriniz

  • Konu Acma Yetkiniz Yok
  • Cevap Yazma Yetkiniz Yok
  • Eklenti Yükleme Yetkiniz Yok
  • Mesajınızı Değiştirme Yetkiniz Yok
  •  
1 2 3 4 5 6 7 8 9 10 11 12 13 14 15 16 17 18 19 20 21 22 23 24 25 26 27 28 29 30 31 32 33 34 35 36 37 38 39 40 41 42 43 44 45 46 47 48 49 50 51 52 53 54 55 56 57 58 59 60 61 62 63 64 65 66 67 68 69 70 71 72 73 74 75 76 77 78 79 80 81 82 83 84 85 86 87 88 89 90 91 92 93 94 95 96 97 98 99 100 101 102 103 104 105 106 107 108 109 110 111 112 113 114 115 116 117 118 119 120 121 122 123 124 125 126 127 128 129 130 131 132 133 134 135 136 137 138 139 140 141 142 143 144 145 146 147 148 149 150 151 152 153 154 155 156 157 158 159 160 161 162 163 164 165 166 167 168 169 170 171 172 173 174 175 176 177 178 179 180 181 182 183 184 185 186 187 188 189 190 191 192 193 194 195 196 197 198 199 200 201 202 203 204 205 206 207 208 209 210