Survivor 2024 All Star 139. Bölüm 1080p WEB-DL H264 - TURG

[Ziyaretçiler üye olmadan, üyelerimiz ise konuya mesaj yazmadan linkleri görüntüleyemezler.Ziyaretçiler üye olmadan, üyelerimiz ise konuya mesaj yazmadan linkleri görüntüleyemezler.]
Survivor 2024 All Star...

Kod:
General
Format         : Matroska
File size        : 3.88 GiB
Duration         : 2 h 0 min
Overall bit rate       : 4 628 kb/s
Frame rate        : 25.000 FPS
Video
Format         : AVC
Format/Info        : Advanced Video Codec
Duration         : 2 h 0 min
Width         : 1 920 pixels
Height         : 1 080 pixels
Frame rate        : 25.000 FPS
Stream size        : 3.77 GiB (97%)
Language         : Tatar
Audio
Format         : AAC LC
Format/Info        : Advanced Audio Codec Low Complexity
Duration         : 2 h 0 min
Channel(s)        : 2 channels
Frame rate        : 43.066 FPS (1024 SPF)
Stream size        : 110 MiB (3%)
Language         : Turkish
[Ziyaretçiler üye olmadan, üyelerimiz ise konuya mesaj yazmadan linkleri görüntüleyemezler.Ziyaretçiler üye olmadan, üyelerimiz ise konuya mesaj yazmadan linkleri görüntüleyemezler.]
SuperUp

turbobit.net, gofile.io, doodrive.com, megaup.net, send.cm, 1fichier.com, mixdrop.ag, pixeldrain.com, streamtape.com, rapidgator.net