Toplam 2 adet sonuctan sayfa basi 1 ile 2 arasi kadar sonuc gösteriliyor

Konu: İşe Yarar Bir Şey (2017) 1080p AMZN WEB-DL H264

  1. #1
    Super Moderator SuperUp - ait Kullanıcı Resmi (Avatar)
    Üyelik tarihi
    14 Nisan 2024
    Mesajlar
    8,827
    Konular
    8299
    Teşekkürleri
    5856
    Blog Entries
    7850
    Tecrübe Puanı
    586

    Standart İşe Yarar Bir Şey (2017) 1080p AMZN WEB-DL H264

    İşe Yarar Bir Şey (2017) 1080p AMZN WEB-DL H264

    [Ziyaretçiler üye olmadan, üyelerimiz ise konuya mesaj yazmadan linkleri görüntüleyemezler.Ziyaretçiler üye olmadan, üyelerimiz ise konuya mesaj yazmadan linkleri görüntüleyemezler.]
    Tür: Dram

    Leyla, gece treniyle çıktığı uzun bir yolculukta manzarayı ve insanları iştahla izlerken hemşirelik öğrencisi Canan'ı fark eder. Bu genç kızı son istasyonda, Yavuz'un evinde, çok ağır bir sorumluluk bekliyordur. Leyla, Canan'ın anlattıklarından ve anlatmadıklarından bir hikaye kurar, kendini kaptırır ve ona eşlik etmeye karar verir. Hikayenin sonunda bir iyilik meleği mi yoksa bir katil mi olacaklarını henüz bilmiyordur.

    Oyuncular: Başak Köklükaya, Öykü Karayel, Yiğit Özşener, Ayşenil Şamlıoğlu, İbrahim Selim, Berfu Öngören, Fatih Sevdi, Melih Düzenli, Murat Kılıç, Nalan Kuruçim

    [Ziyaretçiler üye olmadan, üyelerimiz ise konuya mesaj yazmadan linkleri görüntüleyemezler.Ziyaretçiler üye olmadan, üyelerimiz ise konuya mesaj yazmadan linkleri görüntüleyemezler.]
    Kod:
    General
    Format         : Matroska
    File size        : 3.54 GiB
    Duration         : 1 h 42 min
    Overall bit rate       : 4 938 kb/s
    Frame rate        : 25.000 FPS
    Video
    Format         : AVC
    Format/Info        : Advanced Video Codec
    Duration         : 1 h 42 min
    Width         : 1 920 pixels
    Height         : 800 pixels
    Frame rate        : 25.000 FPS
    Stream size        : 3.38 GiB (95%)
    Audio
    Format         : E-AC-3
    Duration         : 1 h 42 min
    Channel(s)        : 2 channels
    Frame rate        : 31.250 FPS (1536 SPF)
    Stream size        : 165 MiB (5%)
    Language         : Türkçe
    Altyazı  #1
    Format         : UTF-8
    Codec ID/Info       : UTF-8 Plain Altyazı 
    Duration         : 1 h 35 min
    Frame rate        : 0.222 FPS
    Stream size        : 44.4 KiB (0%)
    Language         : English
    Altyazı  #2
    Format         : UTF-8
    Codec ID/Info       : UTF-8 Plain Altyazı 
    Duration         : 1 h 42 min
    Frame rate        : 0.238 FPS
    Stream size        : 55.3 KiB (0%)
    Language         : Türkçe
    [Ziyaretçiler üye olmadan, üyelerimiz ise konuya mesaj yazmadan linkleri görüntüleyemezler.Ziyaretçiler üye olmadan, üyelerimiz ise konuya mesaj yazmadan linkleri görüntüleyemezler.]
    Kod:
    https://iniyor.net/tb/9c9bf6063ece955558960683b52b37d0/Something%20Useful%20AKA%20Ise%20Yarar%20Bir%20Sey%202017%201080p%20AMZN%20WEB-DL%20DD%202.0%20H.264-TEPES.mkv.html
    SuperUp

    turbobit.net, gofile.io, doodrive.com, megaup.net, send.cm, 1fichier.com, mixdrop.ag, pixeldrain.com, streamtape.com, rapidgator.net
    İNİYOR.NET ÜCRETSİZ DOSYA İNDİRME LİMİTİ:
    GÜNLÜK 1 ADET VE MAX. 10 GB'DIR

    SİTEMİZE DESTEK OLMAK,
    TÜM LİNKLERE REKLAMSIZ VE SINIRSIZCA ERİŞEBİLMEK İÇİN
    VIP YA DA SUPER VIP ÜYELİK SATIN ALMANIZ GEREKLİDİR


    İNİYOR VIP ÜYELİK DETAYLARI İÇİN TIKLAYIN

    Her Ruh Haline Uygun Filmler İNİYOR VIP'te

    10 BİNLERCE İÇERİĞİ İNDİRMEDEN İZLEYİN

    Tüm Oyuncuların BoxSet'leri İNİYOR VIP'te - Üstelik Sürekli Güncel

    İNİYOR.NET İLE İLGİLİ TÜM AÇIKLAMALAR İÇİN BURAYA TIKLAYIN

  2. Aşağıdaki 2 kullanıcımız bu mesaj için SuperUp teşekkür ediyor

    itom ( 6 Gün önce), nItRo ( 6 Gün önce)

  3. #2
    Filmrip Üye itom - ait Kullanıcı Resmi (Avatar)
    Üyelik tarihi
    07 Şubat 2023
    Mesajlar
    11,565
    Konular
    0
    Teşekkürleri
    1563
    Tecrübe Puanı
    158

    Standart

    Teşekkürler

  4. Aşağıdaki kullanıcı bu mesajdan dolayı itom teşekkür ediyor

    nItRo ( 6 Gün önce)

Konu Bilgileri

Bu Konuya Gözatan Kullanıcılar

Şu anda 1 kullanıcı bu konuyu görüntülüyor. (0 kayıtlı ve 1 misafir)

Benzer Konular

  1. Deli Aşk (2017) 1080p AMZN WEB-DL H264
    Konu Sahibi SuperUp Forum Cem Yılmaz Stand-Up İndir
    Cevap: 6
    Son Mesaj : 2 Hafta önce, 12:24
  2. Ketenpere (2017) 1080p AMZN WEB-DL H264 - SuperUp
    Konu Sahibi SuperUp Forum Yerli Filmler SuperUp Sunumları
    Cevap: 2
    Son Mesaj : 4 Hafta önce, 16:00
  3. Kardeşim Benim 2 (2017) 1080p AMZN WEB-DL H264 - TURG
    Konu Sahibi SuperUp Forum 1080p Yerli Filmler
    Cevap: 1
    Son Mesaj : 09.Haziran.2024, 12:10
  4. Beginner (2017) 1080p AMZN WEB-DL H264 - HdT
    Konu Sahibi SuperUp Forum 1080p Yerli Filmler
    Cevap: 0
    Son Mesaj : 07.Haziran.2024, 22:12
  5. İşe Yarar Bir Şey (2017) 1080p WEB-DL H264 - HdT
    Konu Sahibi SuperUp Forum 1080p Yerli Filmler
    Cevap: 1
    Son Mesaj : 15.Mayıs.2024, 00:57

Thread Participants: 1

Bookmarks

Yetkileriniz

  • Konu Acma Yetkiniz Yok
  • Cevap Yazma Yetkiniz Yok
  • Eklenti Yükleme Yetkiniz Yok
  • Mesajınızı Değiştirme Yetkiniz Yok
  •  
1 2 3 4 5 6 7 8 9 10 11 12 13 14 15 16 17 18 19 20 21 22 23 24 25 26 27 28 29 30 31 32 33 34 35 36 37 38 39 40 41 42 43 44 45 46 47 48 49 50 51 52 53 54 55 56 57 58 59 60 61 62 63 64 65 66 67 68 69 70 71 72 73 74 75 76 77 78 79 80 81 82 83 84 85 86 87 88 89 90 91 92 93 94 95 96 97 98 99 100 101 102 103 104 105 106 107 108 109 110 111 112 113 114 115 116 117 118 119 120 121 122 123 124 125 126 127 128 129 130 131 132 133 134 135 136 137 138 139 140 141 142 143 144 145 146 147 148 149 150 151 152 153 154 155 156 157 158 159 160 161 162 163 164 165 166 167 168 169 170 171 172 173 174 175 176 177 178 179 180 181 182 183 184 185 186 187 188 189 190 191 192 193 194 195 196 197 198 199