Abimm (2009) Sansürsüz 1080p WEB-DL H264 - HdT

[Ziyaretçiler üye olmadan, üyelerimiz ise konuya mesaj yazmadan linkleri görüntüleyemezler.Ziyaretçiler üye olmadan, üyelerimiz ise konuya mesaj yazmadan linkleri görüntüleyemezler.]
Tür: Dram, Komedi

Abimm, İstanbul'dan Marmaris'e uzanan, Türkiye'nin en güzel yollarında Yeşeren bir kardeşlik hikayesidir. Yıllar sonra bulunan kardeşi, aklı eksik de olsa, sahiplenmenin, bağıra basmanın hikayesidir. Aklı fikri para olmuş Çetin'in, aile değerlerini yeniden keşfetmesinin hikayesidir. Abimm, paraya ve güce tapan insanoglunun, macera dolu, acıklı güldürüsünün hikayesidir . Komedisi ve ağır da Dramı olan Bol aksiyonlu, sıcacık bir aile filmi. İzleyicileri acıklı bir komedi bekliyor.

Oyuncular: Mustafa Üstündağ, Levent Üzümcü, Selen Seyven, Rüçhan Çalışkur, Haldun Boysan, Bülent Şakrak, İlkay Akdağlı, Okan Selvi, Songül Bayoğlu, Hümeyra Aydoğdu

[Ziyaretçiler üye olmadan, üyelerimiz ise konuya mesaj yazmadan linkleri görüntüleyemezler.Ziyaretçiler üye olmadan, üyelerimiz ise konuya mesaj yazmadan linkleri görüntüleyemezler.]
FİLMDEN KARELER

Kod:
General
Format         : Matroska
File size        : 4.55 GiB
Duration         : 1 h 47 min
Overall bit rate       : 6 044 kb/s
Frame rate        : 25.000 FPS
Video
Format         : AVC
Format/Info        : Advanced Video Codec
Duration         : 1 h 47 min
Width         : 1 920 pixels
Height         : 1 080 pixels
Frame rate        : 25.000 FPS
Stream size        : 4.11 GiB (90%)
Language         : Türkçe
Ses 1
Format         : AC-3
Format/Info        : Audio Coding 3
Duration         : 1 h 47 min
Channel(s)        : 6 channels
Frame rate        : 31.250 FPS (1536 SPF)
Stream size        : 345 MiB (7%)
Language         : Türkçe
Ses 2
Format         : AAC LC
Format/Info        : Advanced Audio Codec Low Complexity
Duration         : 1 h 47 min
Channel(s)        : 2 channels
Frame rate        : 43.066 FPS (1024 SPF)
Stream size        : 99.0 MiB (2%)
Language         : Türkçe
Altyazı 
Format         : UTF-8
Codec ID/Info       : UTF-8 Plain Altyazı 
Duration         : 7 min 2 s
Frame rate        : 0.005 FPS
Stream size        : 232 Bytes (0%)
[Ziyaretçiler üye olmadan, üyelerimiz ise konuya mesaj yazmadan linkleri görüntüleyemezler.Ziyaretçiler üye olmadan, üyelerimiz ise konuya mesaj yazmadan linkleri görüntüleyemezler.]
Kod:
https://iniyor.net/tb/53a39fb372c457f25a611becf38d7a18/Abimm%202009%20Yerli%20Sans%C3%BCrs%C3%BCz%201080p%20BP%20WEB-DL%20H264%20AC3%205.1%20-%20HdT.mkv.html
SuperUp

turbobit.net, gofile.io, doodrive.com, megaup.net, send.cm, 1fichier.com, mixdrop.ag, pixeldrain.com, streamtape.com, rapidgator.net