Aşka Dair (2022) Sansürsüz 1080p WEB-DL x264 - HdT

[Ziyaretçiler üye olmadan, üyelerimiz ise konuya mesaj yazmadan linkleri görüntüleyemezler.Ziyaretçiler üye olmadan, üyelerimiz ise konuya mesaj yazmadan linkleri görüntüleyemezler.]
Tür: Komedi, Romantik

İpek, çok aşık olduğu ve aldatıldığını düşündüğü Furkan'dan ayrıldı. Furkan'dan sonra kimseye aşık olmayan ama ona ilgi gösteren Cengiz ile nişanlandılar. Cengiz'in evde olmadığı gün en yakın arkadaşı Simge ile Cengiz'e doğum günü sürprizi hazırlarken başka bir kadınla Cengiz'e baskın yaparlar. Bu ikinci aldatmadan sonra İpek derin bir bunalıma girer. İkon ise kafasını dağıtmak için onunla bir tekne turu düzenler ve birlikte bir tekne turuna çıkarlar. Tekne turuna çıktıklarında İpek'in yıllar önceki ilk aşkı Furkan, kız arkadaşı Esra ile tekne turuna çıkar. İpek onu görünce hem etkilenir hem de sinirlenir. Tekneden ayrılmak istese de Simge onu ikna eder ve tatillerine devam ederler. Tekne turunun sonlarına doğru Furkan ve İpek her karşılaştıklarında ortam gerilir ve İpek buna dayanamaz ve tekneden inmek ister, tam Furkan tekneden inmek üzereyken Furkan her şeyi açıklamaya karar verir.

Oyuncular: Tuğba Melis Türk, Alper Saldıran, Serenay Aktaş, Selahattin Taşdöğen, Binnur Şerbetçioğlu, Orçun Kaptan, İlayda Aydın, Hasan Doğan,

FİLMDEN KARELER

Kod:
General
Format         : Matroska
File size        : 3.13 GiB
Duration         : 2 h 4 min
Overall bit rate       : 3 596 kb/s
Frame rate        : 25.000 FPS
Video
Format         : AVC
Format/Info        : Advanced Video Codec
Duration         : 2 h 4 min
Width         : 1 920 pixels
Height         : 1 080 pixels
Frame rate        : 25.000 FPS
Stream size        : 3.02 GiB (96%)
Language         : Türkçe
Audio
Format         : AAC LC
Format/Info        : Advanced Audio Codec Low Complexity
Duration         : 2 h 4 min
Channel(s)        : 2 channels
Frame rate        : 46.875 FPS (1024 SPF)
Stream size        : 115 MiB (4%)
Language         : Türkçe
[Ziyaretçiler üye olmadan, üyelerimiz ise konuya mesaj yazmadan linkleri görüntüleyemezler.Ziyaretçiler üye olmadan, üyelerimiz ise konuya mesaj yazmadan linkleri görüntüleyemezler.]
Kod:
https://iniyor.net/tb/98d15fdf340c48f40093c422aa43c2da/A%C5%9Fka%20Dair%202022%20Yerli%20Sans%C3%BCrs%C3%BCz%201080p%20DSGO%20WEB-DL%20x264%20AAC%20-%20HdT.mkv.html
SuperUp

turbobit.net, gofile.io, doodrive.com, megaup.net, send.cm, 1fichier.com, mixdrop.ag, pixeldrain.com, streamtape.com, rapidgator.net