Müsaadenizle Büyükler (2018) Sansürsüz 1080p WEB-DL x264 - HdT

[Ziyaretçiler üye olmadan, üyelerimiz ise konuya mesaj yazmadan linkleri görüntüleyemezler.Ziyaretçiler üye olmadan, üyelerimiz ise konuya mesaj yazmadan linkleri görüntüleyemezler.]
Tür: Komedi, Macera

Talip Karamahmutoğlu'nun yönetmenliğini üstlendiği Müsaadenizle Büyükler, sokağa terk edilmiş köpeklerle ilgilenirken yetişkinlerle mücadele etmek zorunda kalan bir grup iyiliksever çocuğun hikayesini anlatıyor.

Oyuncular: Alperen Efe Esmer, Enes Göçmen, Emre Altuğ, Bilge Karamahmutoğlu, Talip Karamahmutoğlu, Talip Karamahmutoğlu, Okay Karamahmutoğlu,

[Ziyaretçiler üye olmadan, üyelerimiz ise konuya mesaj yazmadan linkleri görüntüleyemezler.Ziyaretçiler üye olmadan, üyelerimiz ise konuya mesaj yazmadan linkleri görüntüleyemezler.]
FİLMDEN KARELER

Kod:
General
Format         : Matroska
File size        : 2.41 GiB
Duration         : 1 h 35 min
Overall bit rate       : 3 593 kb/s
Frame rate        : 25.000 FPS
Video
Format         : AVC
Format/Info        : Advanced Video Codec
Duration         : 1 h 35 min
Width         : 1 920 pixels
Height         : 1 080 pixels
Frame rate        : 25.000 FPS
Stream size        : 2.32 GiB (96%)
Language         : Türkçe
Audio
Format         : AAC LC
Format/Info        : Advanced Audio Codec Low Complexity
Duration         : 1 h 35 min
Channel(s)        : 2 channels
Frame rate        : 46.875 FPS (1024 SPF)
Stream size        : 87.9 MiB (4%)
Language         : Türkçe
[Ziyaretçiler üye olmadan, üyelerimiz ise konuya mesaj yazmadan linkleri görüntüleyemezler.Ziyaretçiler üye olmadan, üyelerimiz ise konuya mesaj yazmadan linkleri görüntüleyemezler.]
Kod:
https://iniyor.net/tb/8802d525759232904cef197a74b186d4/M%C3%BCsaadenizle%20B%C3%BCy%C3%BCkler%202018%20Yerli%20Sans%C3%BCrs%C3%BCz%201080p%20DSGO%20WEB-DL%20x264%20AAC%20-%20HdT.mkv.html
SuperUp

turbobit.net, gofile.io, doodrive.com, megaup.net, send.cm, 1fichier.com, mixdrop.ag, pixeldrain.com, streamtape.com, rapidgator.net