G.D.O. Kara Kedi (2013) Sansürsüz 1080p WEB-DL x264 - HdT

[Ziyaretçiler üye olmadan, üyelerimiz ise konuya mesaj yazmadan linkleri görüntüleyemezler.Ziyaretçiler üye olmadan, üyelerimiz ise konuya mesaj yazmadan linkleri görüntüleyemezler.]
Tür: Aksiyon, Komedi

İstanbul'un eski semtlerinden olan Balat'ta yaşayan ve kendi yağlarıyla kavrulan üç kardeş, taksicilikle hayatını kazanan Gürkan, pilavcılık yapan Orhan ve iflah olmaz biçimde aşık olan Duran... Herkes gibi yaşam mücadelelerini sürdürürken, sıradan dertlerini de çözmeye çalışan bu üç kardeşin hayatı bir gün başlarına gelen bir kazanın yol açtığı, cinayet, mafya, kız kaçırma üçgeniyle allak bullak olur.

Oyuncular: Şafak Sezer, Serkan Şengül, Volkan Başaran, Seda Yıldız, Durul Bazan, Şener Kökkaya, Hamdi Kahraman, Erdem Akakçe, Melisa Aslı Pamuk, Cenk Kangöz

[Ziyaretçiler üye olmadan, üyelerimiz ise konuya mesaj yazmadan linkleri görüntüleyemezler.Ziyaretçiler üye olmadan, üyelerimiz ise konuya mesaj yazmadan linkleri görüntüleyemezler.]
FİLMDEN KARELER

Kod:
General
Format         : Matroska
File size        : 2.37 GiB
Duration         : 1 h 34 min
Overall bit rate       : 3 588 kb/s
Frame rate        : 25.000 FPS
Video
Format         : AVC
Format/Info        : Advanced Video Codec
Duration         : 1 h 34 min
Width         : 1 920 pixels
Height         : 1 080 pixels
Frame rate        : 25.000 FPS
Stream size        : 2.28 GiB (96%)
Language         : Türkçe
Audio
Format         : AAC LC
Format/Info        : Advanced Audio Codec Low Complexity
Duration         : 1 h 34 min
Channel(s)        : 2 channels
Frame rate        : 46.875 FPS (1024 SPF)
Stream size        : 86.9 MiB (4%)
Language         : Türkçe
[Ziyaretçiler üye olmadan, üyelerimiz ise konuya mesaj yazmadan linkleri görüntüleyemezler.Ziyaretçiler üye olmadan, üyelerimiz ise konuya mesaj yazmadan linkleri görüntüleyemezler.]
Kod:
https://iniyor.net/tb/701dbe9dee6fee3f3acd69370607882b/G.D.O.%20Kara%20Kedi%202012%20Yerli%20Sans%C3%BCrs%C3%BCz%201080p%20DSGO%20WEB-DL%20x264%20AAC%20-%20HdT.mkv.html
SuperUp

turbobit.net, gofile.io, doodrive.com, megaup.net, send.cm, 1fichier.com, mixdrop.ag, pixeldrain.com, streamtape.com, rapidgator.net