Jülide (2021) 1080p WEB-DL MUBI x264

[Ziyaretçiler üye olmadan, üyelerimiz ise konuya mesaj yazmadan linkleri görüntüleyemezler.Ziyaretçiler üye olmadan, üyelerimiz ise konuya mesaj yazmadan linkleri görüntüleyemezler.]
Bir geceyarısı üst kattan gelen gürültüden endişelenerek komşusunun evine giden Jülide, intihar etmek üzere olan Kaan'la karşılaşır.

Kod:
General
Format         : Matroska
File size        : 785 MiB
Duration         : 20 min 0 s
Overall bit rate       : 5 490 kb/s
Frame rate        : 25.000 FPS
Video
Format         : AVC
Format/Info        : Advanced Video Codec
Duration         : 20 min 0 s
Width         : 1 920 pixels
Height         : 1 080 pixels
Frame rate        : 25.000 FPS
Stream size        : 739 MiB (94%)
Language         : Türkçe
Audio
Format         : AAC LC
Format/Info        : Advanced Audio Codec Low Complexity
Duration         : 20 min 0 s
Channel(s)        : 2 channels
Frame rate        : 46.875 FPS (1024 SPF)
Stream size        : 45.8 MiB (6%)
Language         : Türkçe
[Ziyaretçiler üye olmadan, üyelerimiz ise konuya mesaj yazmadan linkleri görüntüleyemezler.Ziyaretçiler üye olmadan, üyelerimiz ise konuya mesaj yazmadan linkleri görüntüleyemezler.]
Kod:
https://iniyor.net/tb/17477f91aa60d8f9531592e4729feb9e/Julide.2021.1080p.MUBI.WEB-DL.AAC2.0.x264.mkv.html
SuperUp

turbobit.net, gofile.io, doodrive.com, megaup.net, send.cm, 1fichier.com, mixdrop.ag, pixeldrain.com, streamtape.com, rapidgator.net