Toplam 2 adet sonuctan sayfa basi 1 ile 2 arasi kadar sonuc gösteriliyor

Konu: Ramy S02 1080p AMZN WEB-DL H264 DD5.1 | Türkçe Altyazı

  1. #1
    Super Moderator SuperUp - ait Kullanıcı Resmi (Avatar)
    Üyelik tarihi
    14 Nisan 2024
    Mesajlar
    6,020
    Konular
    5682
    Teşekkürleri
    3611
    Blog Entries
    1842
    Tecrübe Puanı
    362

    Standart Ramy S02 1080p AMZN WEB-DL H264 DD5.1 | Türkçe Altyazı

    Ramy S02 1080p AMZN WEB-DL H264 DD5.1 | Türkçe Altyazı

    [Ziyaretçiler üye olmadan, üyelerimiz ise konuya mesaj yazmadan linkleri görüntüleyemezler.Ziyaretçiler üye olmadan, üyelerimiz ise konuya mesaj yazmadan linkleri görüntüleyemezler.]
    Tür: Komedi, Dram


    Mısırlı göçmen bir ailenin oğlu olan Ramy, New Jersey'de yaşamının sürekli bir sınav olduğunu düşünen müslüman cemaatiyle yaşamaktadır ancak onun hayata bakış açısı çevresindekilerden çok daha farklıdır.


    Kod:
    General
    Format                                   : Matroska
    File size                                : 1.81 GiB
    Duration                                 : 29 min 57 s
    Overall bit rate                         : 8 636 kb/s
    Frame rate                               : 23.976 FPS
    Video
    Format                                   : AVC
    Format/Info                              : Advanced Video Codec
    Duration                                 : 29 min 57 s
    Width                                    : 1 920 pixels
    Height                                   : 1 080 pixels
    Frame rate                               : 23.976 (24000/1001) FPS
    Stream size                              : 1.67 GiB (93%)
    Audio
    Format                                   : E-AC-3
    Duration                                 : 29 min 57 s
    Channel(s)                               : 6 channels
    Frame rate                               : 31.250 FPS (1536 SPF)
    Stream size                              : 137 MiB (7%)
    Language                                 : English
    Format                                   : UTF-8
    Duration                                 : 27 min 45 s
    Frame rate                               : 0.340 FPS
    Stream size                              : 16.6 KiB (0%)
    Language                                 : English

    [Ziyaretçiler üye olmadan, üyelerimiz ise konuya mesaj yazmadan linkleri görüntüleyemezler.Ziyaretçiler üye olmadan, üyelerimiz ise konuya mesaj yazmadan linkleri görüntüleyemezler.]
    [Ziyaretçiler üye olmadan, üyelerimiz ise konuya mesaj yazmadan linkleri görüntüleyemezler.Ziyaretçiler üye olmadan, üyelerimiz ise konuya mesaj yazmadan linkleri görüntüleyemezler.]
    [Ziyaretçiler üye olmadan, üyelerimiz ise konuya mesaj yazmadan linkleri görüntüleyemezler.Ziyaretçiler üye olmadan, üyelerimiz ise konuya mesaj yazmadan linkleri görüntüleyemezler.]
    [Ziyaretçiler üye olmadan, üyelerimiz ise konuya mesaj yazmadan linkleri görüntüleyemezler.Ziyaretçiler üye olmadan, üyelerimiz ise konuya mesaj yazmadan linkleri görüntüleyemezler.]
    [Ziyaretçiler üye olmadan, üyelerimiz ise konuya mesaj yazmadan linkleri görüntüleyemezler.Ziyaretçiler üye olmadan, üyelerimiz ise konuya mesaj yazmadan linkleri görüntüleyemezler.]
    [Ziyaretçiler üye olmadan, üyelerimiz ise konuya mesaj yazmadan linkleri görüntüleyemezler.Ziyaretçiler üye olmadan, üyelerimiz ise konuya mesaj yazmadan linkleri görüntüleyemezler.]
    [Ziyaretçiler üye olmadan, üyelerimiz ise konuya mesaj yazmadan linkleri görüntüleyemezler.Ziyaretçiler üye olmadan, üyelerimiz ise konuya mesaj yazmadan linkleri görüntüleyemezler.]
    [Ziyaretçiler üye olmadan, üyelerimiz ise konuya mesaj yazmadan linkleri görüntüleyemezler.Ziyaretçiler üye olmadan, üyelerimiz ise konuya mesaj yazmadan linkleri görüntüleyemezler.]
    [Ziyaretçiler üye olmadan, üyelerimiz ise konuya mesaj yazmadan linkleri görüntüleyemezler.Ziyaretçiler üye olmadan, üyelerimiz ise konuya mesaj yazmadan linkleri görüntüleyemezler.]
    [Ziyaretçiler üye olmadan, üyelerimiz ise konuya mesaj yazmadan linkleri görüntüleyemezler.Ziyaretçiler üye olmadan, üyelerimiz ise konuya mesaj yazmadan linkleri görüntüleyemezler.]



    [Ziyaretçiler üye olmadan, üyelerimiz ise konuya mesaj yazmadan linkleri görüntüleyemezler.Ziyaretçiler üye olmadan, üyelerimiz ise konuya mesaj yazmadan linkleri görüntüleyemezler.]

  2. Aşağıdaki kullanıcı bu mesajdan dolayı SuperUp teşekkür ediyor

    itom (1 hafta önce)

  3. #2
    Filmrip Üye itom - ait Kullanıcı Resmi (Avatar)
    Üyelik tarihi
    07 Şubat 2023
    Mesajlar
    9,366
    Konular
    0
    Teşekkürleri
    1218
    Tecrübe Puanı
    123

    Standart

    Teşekkürler

Konu Bilgileri

Bu Konuya Gözatan Kullanıcılar

Şu anda 1 kullanıcı bu konuyu görüntülüyor. (0 kayıtlı ve 1 misafir)

Benzer Konular

  1. House Party (2023) 1080p AMZN WEB-DL H264 DDP5.1 Türkçe Altyazılı
    Konu Sahibi SuperUp Forum 1080p Orjinal Dil
    Cevap: 1
    Son Mesaj : 1 hafta önce, 08:07
  2. Ramy Sabry - El Nehyat Akhlaa (2024)
    Konu Sahibi DETRATAUS Forum Yabancı Albüm İndirme Bölümü
    Cevap: 2
    Son Mesaj : 10.Mayıs.2024, 14:41
  3. Cevap: 3
    Son Mesaj : 23.Eylül.2023, 14:55
  4. Ramy COMPLETE S 1-2-3
    Konu Sahibi admin Forum Güncel Alt Yazılı BoxSet Diziler
    Cevap: 0
    Son Mesaj : 21.Şubat.2023, 15:31
  5. Ramy Sabry - Al Ragel [2017] Album (HQ)
    Konu Sahibi FilmRip Forum 2014 Yerli Albüm İndir
    Cevap: 0
    Son Mesaj : 13.Şubat.2023, 08:16

Thread Participants: 1

Bookmarks

Yetkileriniz

  • Konu Acma Yetkiniz Yok
  • Cevap Yazma Yetkiniz Yok
  • Eklenti Yükleme Yetkiniz Yok
  • Mesajınızı Değiştirme Yetkiniz Yok
  •  
1 2 3 4 5 6 7 8 9 10 11 12 13 14 15 16 17 18 19 20 21 22 23 24 25 26 27 28 29 30 31 32 33 34 35 36 37 38 39 40 41 42 43 44 45 46 47 48 49 50 51 52 53 54 55 56 57 58 59 60 61 62 63 64 65 66 67 68 69 70 71 72 73 74 75 76 77 78 79 80 81 82 83 84 85 86 87 88 89 90 91 92 93 94 95 96 97 98 99 100 101 102 103 104 105 106 107 108 109 110 111 112 113 114 115 116 117 118 119 120 121 122 123 124 125 126 127 128 129 130 131 132 133 134 135 136 137 138 139 140 141 142 143 144 145 146 147 148 149 150 151 152 153 154 155 156 157 158 159 160 161 162 163 164 165 166 167 168 169 170 171 172 173 174 175 176 177 178 179 180 181 182 183 184 185 186 187 188 189 190 191 192 193 194 195 196 197 198 199 200 201 202 203 204 205 206 207 208 209 210