Toplam 2 adet sonuctan sayfa basi 1 ile 2 arasi kadar sonuc gösteriliyor

Konu: CSI: Vegas S01 1080p DUAL BluRay x264

  1. #1
    Super Moderator SuperUp - ait Kullanıcı Resmi (Avatar)
    Üyelik tarihi
    14 Nisan 2024
    Mesajlar
    6,024
    Konular
    5686
    Teşekkürleri
    3611
    Blog Entries
    1846
    Tecrübe Puanı
    362

    Standart CSI: Vegas S01 1080p DUAL BluRay x264

    CSI: Vegas S01 1080p DUAL BluRay x264

    [Ziyaretçiler üye olmadan, üyelerimiz ise konuya mesaj yazmadan linkleri görüntüleyemezler.Ziyaretçiler üye olmadan, üyelerimiz ise konuya mesaj yazmadan linkleri görüntüleyemezler.]
    Tür: Suç, Dram, Gizem


    CSI: Vegas, Las Vegas'ta yepyeni bir sayfa açıyor. Suç laboratuarının mirası ve geleceği sorgulandığında, Maxine Roby (Paula Newsome) liderliğindeki yeni ve parlak bir araştırmacı ekibi, eski arkadaşları Gil Grissom (William Peterson) ve Sara Sidle'ın (Jorja Fox) yardımına başvururlar. Bu ekip, Günah Şehri'nde adaleti korumak, adalete hizmet etmek ve gerçeği ortaya çıkarmak için en iyi yaptıkları şeyi yapacak, yani kanıtları takip edecek ve bunu yaparken de en son adlî teknikleri kullanacaklardır.


    FİLMDEN KARELER

    Kod:
    General
    Format                                   : Matroska
    File size                                : 1.02 GiB
    Duration                                 : 41 min 16 s
    Overall bit rate                         : 3 543 kb/s
    Frame rate                               : 25.000 FPS
    Video
    Format                                   : AVC
    Format/Info                              : Advanced Video Codec
    Duration                                 : 41 min 16 s
    Width                                    : 1 920 pixels
    Height                                   : 1 080 pixels
    Frame rate                               : 25.000 FPS
    Stream size                              : 988 MiB (94%)
    Audio #1
    Format                                   : AAC LC
    Format/Info                              : Advanced Audio Codec Low Complexity
    Duration                                 : 41 min 16 s
    Channel(s)                               : 2 channels
    Frame rate                               : 43.066 FPS (1024 SPF)
    Stream size                              : 28.3 MiB (3%)
    Language                                 : Turkish
    Audio #2
    Format                                   : AAC LC
    Format/Info                              : Advanced Audio Codec Low Complexity
    Duration                                 : 41 min 16 s
    Channel(s)                               : 2 channels
    Frame rate                               : 43.066 FPS (1024 SPF)
    Stream size                              : 28.3 MiB (3%)
    Language                                 : English
    Text #1
    Format                                   : UTF-8
    Duration                                 : 40 min 4 s
    Frame rate                               : 0.301 FPS
    Stream size                              : 28.4 KiB (0%)
    Language                                 : Turkish
    Text #2
    Format                                   : UTF-8
    Duration                                 : 40 min 4 s
    Frame rate                               : 0.360 FPS
    Stream size                              : 27.5 KiB (0%)
    Language                                 : Turkish

    [Ziyaretçiler üye olmadan, üyelerimiz ise konuya mesaj yazmadan linkleri görüntüleyemezler.Ziyaretçiler üye olmadan, üyelerimiz ise konuya mesaj yazmadan linkleri görüntüleyemezler.]
    [Ziyaretçiler üye olmadan, üyelerimiz ise konuya mesaj yazmadan linkleri görüntüleyemezler.Ziyaretçiler üye olmadan, üyelerimiz ise konuya mesaj yazmadan linkleri görüntüleyemezler.]
    [Ziyaretçiler üye olmadan, üyelerimiz ise konuya mesaj yazmadan linkleri görüntüleyemezler.Ziyaretçiler üye olmadan, üyelerimiz ise konuya mesaj yazmadan linkleri görüntüleyemezler.]
    [Ziyaretçiler üye olmadan, üyelerimiz ise konuya mesaj yazmadan linkleri görüntüleyemezler.Ziyaretçiler üye olmadan, üyelerimiz ise konuya mesaj yazmadan linkleri görüntüleyemezler.]
    [Ziyaretçiler üye olmadan, üyelerimiz ise konuya mesaj yazmadan linkleri görüntüleyemezler.Ziyaretçiler üye olmadan, üyelerimiz ise konuya mesaj yazmadan linkleri görüntüleyemezler.]
    [Ziyaretçiler üye olmadan, üyelerimiz ise konuya mesaj yazmadan linkleri görüntüleyemezler.Ziyaretçiler üye olmadan, üyelerimiz ise konuya mesaj yazmadan linkleri görüntüleyemezler.]
    [Ziyaretçiler üye olmadan, üyelerimiz ise konuya mesaj yazmadan linkleri görüntüleyemezler.Ziyaretçiler üye olmadan, üyelerimiz ise konuya mesaj yazmadan linkleri görüntüleyemezler.]
    [Ziyaretçiler üye olmadan, üyelerimiz ise konuya mesaj yazmadan linkleri görüntüleyemezler.Ziyaretçiler üye olmadan, üyelerimiz ise konuya mesaj yazmadan linkleri görüntüleyemezler.]
    [Ziyaretçiler üye olmadan, üyelerimiz ise konuya mesaj yazmadan linkleri görüntüleyemezler.Ziyaretçiler üye olmadan, üyelerimiz ise konuya mesaj yazmadan linkleri görüntüleyemezler.]
    [Ziyaretçiler üye olmadan, üyelerimiz ise konuya mesaj yazmadan linkleri görüntüleyemezler.Ziyaretçiler üye olmadan, üyelerimiz ise konuya mesaj yazmadan linkleri görüntüleyemezler.]

  2. Aşağıdaki kullanıcı bu mesajdan dolayı SuperUp teşekkür ediyor

    itom (1 hafta önce)

  3. #2
    Filmrip Üye itom - ait Kullanıcı Resmi (Avatar)
    Üyelik tarihi
    07 Şubat 2023
    Mesajlar
    9,366
    Konular
    0
    Teşekkürleri
    1218
    Tecrübe Puanı
    123

    Standart

    Teşekkürler

Konu Bilgileri

Bu Konuya Gözatan Kullanıcılar

Şu anda 1 kullanıcı bu konuyu görüntülüyor. (0 kayıtlı ve 1 misafir)

Benzer Konular

  1. Vegas'ta Korku ve Nefret - Fear and Loathing in Las Vegas (1998) TR BRRip XViD
    Konu Sahibi SuperUp Forum BRRip & WEB-DL Türkçe Dublaj
    Cevap: 0
    Son Mesaj : 1 hafta önce, 19:09
  2. MAGIX VEGAS Pro 21.0.0.314 | x64 | Katılımsız
    Konu Sahibi FilmRip Forum Katılımsız Programlar
    Cevap: 0
    Son Mesaj : 16.Mayıs.2024, 04:10
  3. CSI Vegas S03E07 Coinkydink 1080p AMZN WEB-DL DDP5.1 H 264-NTb
    Konu Sahibi FilmRip Forum Tek Linkli Dual TR EN Diziler
    Cevap: 2
    Son Mesaj : 30.Nisan.2024, 05:39
  4. Cevap: 2
    Son Mesaj : 22.Haziran.2023, 16:12

Thread Participants: 1

Bookmarks

Yetkileriniz

  • Konu Acma Yetkiniz Yok
  • Cevap Yazma Yetkiniz Yok
  • Eklenti Yükleme Yetkiniz Yok
  • Mesajınızı Değiştirme Yetkiniz Yok
  •  
1 2 3 4 5 6 7 8 9 10 11 12 13 14 15 16 17 18 19 20 21 22 23 24 25 26 27 28 29 30 31 32 33 34 35 36 37 38 39 40 41 42 43 44 45 46 47 48 49 50 51 52 53 54 55 56 57 58 59 60 61 62 63 64 65 66 67 68 69 70 71 72 73 74 75 76 77 78 79 80 81 82 83 84 85 86 87 88 89 90 91 92 93 94 95 96 97 98 99 100 101 102 103 104 105 106 107 108 109 110 111 112 113 114 115 116 117 118 119 120 121 122 123 124 125 126 127 128 129 130 131 132 133 134 135 136 137 138 139 140 141 142 143 144 145 146 147 148 149 150 151 152 153 154 155 156 157 158 159 160 161 162 163 164 165 166 167 168 169 170 171 172 173 174 175 176 177 178 179 180 181 182 183 184 185 186 187 188 189 190 191 192 193 194 195 196 197 198 199 200 201 202 203 204 205 206 207 208 209 210