Toplam 2 adet sonuctan sayfa basi 1 ile 2 arasi kadar sonuc gösteriliyor

Konu: Six Feet Under S04 1080p DUAL WEB-DL x264 - HdT

  1. #1
    Super Moderator SuperUp - ait Kullanıcı Resmi (Avatar)
    Üyelik tarihi
    14 Nisan 2024
    Mesajlar
    6,020
    Konular
    5682
    Teşekkürleri
    3611
    Blog Entries
    1842
    Tecrübe Puanı
    362

    Standart Six Feet Under S04 1080p DUAL WEB-DL x264 - HdT

    Six Feet Under S04 1080p DUAL WEB-DL x264 - HdT

    [Ziyaretçiler üye olmadan, üyelerimiz ise konuya mesaj yazmadan linkleri görüntüleyemezler.Ziyaretçiler üye olmadan, üyelerimiz ise konuya mesaj yazmadan linkleri görüntüleyemezler.]
    Tür: Dram


    Six Feet Under HBO tarafından yapılmış bir televizyon dizisidir. Türkiye`de CNBC-e tarafından yayınlanmıştır. Dizinin 63. ve son bölümünün yayın tarihi 1 Temmuz 2007'dir.nnAmerican Beauty’nin senaristi Alan Ball’ın senaryosunu yazdığı dizi, bir cenaze evi işleten ve bu evde yaşayan Fisher ailesinin yaşantılarına dair bir kara mizahtır. 2003 yılında En İyi Drama Dizisi dalında Altın Küre ödülü alan yapım, 2005 yılında 5. sezonuyla ekranlara veda etmiştir.nn2004 Altın Küre'de iki ayrı dalda aday gösterilip Frances Conroy ile Televizyon dizilerinde en iyi kadın oyuncu ödülünü almıştır. Aynı yıl Screen Actors Guild Awards'da (Conroy ve tüm casting ekibi ile) iki ödül almıştır. 32 kez Emmy adaylığı alıp 7'sini, 8 Golden Globe adaylığından 3'ünü kazanmıştır.


    FİLMDEN KARELER

    Kod:
    General
    Format                                   : Matroska
    File size                                : 2.38 GiB
    Duration                                 : 54 min 54 s
    Overall bit rate mode                    : Variable
    Overall bit rate                         : 6 207 kb/s
    Frame rate                               : 25.000 FPS
    Video
    Format                                   : AVC
    Format/Info                              : Advanced Video Codec
    Duration                                 : 54 min 54 s
    Width                                    : 1 920 pixels
    Height                                   : 1 080 pixels
    Frame rate                               : 25.000 FPS
    Stream size                              : 2.28 GiB (96%)
    Language                                 : English
    Audio #1
    Format                                   : AAC LC SBR
    Format/Info                              : Advanced Audio Codec Low Complexity with Spectral Band Replication
    Duration                                 : 54 min 54 s
    Channel(s)                               : 2 channels
    Frame rate                               : 23.438 FPS (2048 SPF)
    Stream size                              : 50.3 MiB (2%)
    Language                                 : English
    Audio #2
    Format                                   : AAC LC SBR
    Format/Info                              : Advanced Audio Codec Low Complexity with Spectral Band Replication
    Duration                                 : 54 min 54 s
    Channel(s)                               : 2 channels
    Frame rate                               : 23.438 FPS (2048 SPF)
    Stream size                              : 50.3 MiB (2%)
    Language                                 : English
    Text #1
    Format                                   : UTF-8
    Duration                                 : 51 min 0 s
    Frame rate                               : 0.254 FPS
    Stream size                              : 22.9 KiB (0%)
    Language                                 : English
    Text #2
    Format                                   : UTF-8
    Duration                                 : 51 min 0 s
    Frame rate                               : 0.199 FPS
    Stream size                              : 22.0 KiB (0%)
    Language                                 : Turkish

    [Ziyaretçiler üye olmadan, üyelerimiz ise konuya mesaj yazmadan linkleri görüntüleyemezler.Ziyaretçiler üye olmadan, üyelerimiz ise konuya mesaj yazmadan linkleri görüntüleyemezler.]
    [Ziyaretçiler üye olmadan, üyelerimiz ise konuya mesaj yazmadan linkleri görüntüleyemezler.Ziyaretçiler üye olmadan, üyelerimiz ise konuya mesaj yazmadan linkleri görüntüleyemezler.]
    [Ziyaretçiler üye olmadan, üyelerimiz ise konuya mesaj yazmadan linkleri görüntüleyemezler.Ziyaretçiler üye olmadan, üyelerimiz ise konuya mesaj yazmadan linkleri görüntüleyemezler.]
    [Ziyaretçiler üye olmadan, üyelerimiz ise konuya mesaj yazmadan linkleri görüntüleyemezler.Ziyaretçiler üye olmadan, üyelerimiz ise konuya mesaj yazmadan linkleri görüntüleyemezler.]
    [Ziyaretçiler üye olmadan, üyelerimiz ise konuya mesaj yazmadan linkleri görüntüleyemezler.Ziyaretçiler üye olmadan, üyelerimiz ise konuya mesaj yazmadan linkleri görüntüleyemezler.]
    [Ziyaretçiler üye olmadan, üyelerimiz ise konuya mesaj yazmadan linkleri görüntüleyemezler.Ziyaretçiler üye olmadan, üyelerimiz ise konuya mesaj yazmadan linkleri görüntüleyemezler.]
    [Ziyaretçiler üye olmadan, üyelerimiz ise konuya mesaj yazmadan linkleri görüntüleyemezler.Ziyaretçiler üye olmadan, üyelerimiz ise konuya mesaj yazmadan linkleri görüntüleyemezler.]
    [Ziyaretçiler üye olmadan, üyelerimiz ise konuya mesaj yazmadan linkleri görüntüleyemezler.Ziyaretçiler üye olmadan, üyelerimiz ise konuya mesaj yazmadan linkleri görüntüleyemezler.]
    [Ziyaretçiler üye olmadan, üyelerimiz ise konuya mesaj yazmadan linkleri görüntüleyemezler.Ziyaretçiler üye olmadan, üyelerimiz ise konuya mesaj yazmadan linkleri görüntüleyemezler.]
    [Ziyaretçiler üye olmadan, üyelerimiz ise konuya mesaj yazmadan linkleri görüntüleyemezler.Ziyaretçiler üye olmadan, üyelerimiz ise konuya mesaj yazmadan linkleri görüntüleyemezler.]
    [Ziyaretçiler üye olmadan, üyelerimiz ise konuya mesaj yazmadan linkleri görüntüleyemezler.Ziyaretçiler üye olmadan, üyelerimiz ise konuya mesaj yazmadan linkleri görüntüleyemezler.]
    [Ziyaretçiler üye olmadan, üyelerimiz ise konuya mesaj yazmadan linkleri görüntüleyemezler.Ziyaretçiler üye olmadan, üyelerimiz ise konuya mesaj yazmadan linkleri görüntüleyemezler.]

  2. Aşağıdaki 2 kullanıcımız bu mesaj için SuperUp teşekkür ediyor

    FilmRip (1 hafta önce), itom (1 hafta önce)

  3. #2
    Forum Sahibi FilmRip - ait Kullanıcı Resmi (Avatar)
    Üyelik tarihi
    24 Ocak 2021
    Nereden
    TR Ankara
    Yaş
    59
    Mesajlar
    43,529
    Konular
    36945
    Teşekkürleri
    437696
    Tecrübe Puanı
    10

    Standart

    teşekkür ederim kardeşim

Konu Bilgileri

Bu Konuya Gözatan Kullanıcılar

Şu anda 1 kullanıcı bu konuyu görüntülüyor. (0 kayıtlı ve 1 misafir)

Thread Participants: 1

Bookmarks

Yetkileriniz

  • Konu Acma Yetkiniz Yok
  • Cevap Yazma Yetkiniz Yok
  • Eklenti Yükleme Yetkiniz Yok
  • Mesajınızı Değiştirme Yetkiniz Yok
  •  
1 2 3 4 5 6 7 8 9 10 11 12 13 14 15 16 17 18 19 20 21 22 23 24 25 26 27 28 29 30 31 32 33 34 35 36 37 38 39 40 41 42 43 44 45 46 47 48 49 50 51 52 53 54 55 56 57 58 59 60 61 62 63 64 65 66 67 68 69 70 71 72 73 74 75 76 77 78 79 80 81 82 83 84 85 86 87 88 89 90 91 92 93 94 95 96 97 98 99 100 101 102 103 104 105 106 107 108 109 110 111 112 113 114 115 116 117 118 119 120 121 122 123 124 125 126 127 128 129 130 131 132 133 134 135 136 137 138 139 140 141 142 143 144 145 146 147 148 149 150 151 152 153 154 155 156 157 158 159 160 161 162 163 164 165 166 167 168 169 170 171 172 173 174 175 176 177 178 179 180 181 182 183 184 185 186 187 188 189 190 191 192 193 194 195 196 197 198 199 200 201 202 203 204 205 206 207 208 209 210