Yerli Yabancı SuperUp Paylaşımları

Eva Lasting S01 1080p Türkçe Altyazılı NF WEB-DL H264 DDP5.1

Rate this Entry
Eva Lasting S01 1080p Türkçe Altyazılı NF WEB-DL H264 DDP5.1


IMDB LİNKİ

Tür: Dram


FİLMDEN KARELER

Kod:
General
Format                                   : Matroska
File size                                : 2.40 GiB
Duration                                 : 43 min 18 s
Overall bit rate mode                    : Variable
Overall bit rate                         : 7 936 kb/s
Frame rate                               : 23.976 FPS
Video
Format                                   : AVC
Format/Info                              : Advanced Video Codec
Duration                                 : 43 min 18 s
Width                                    : 1 920 pixels
Height                                   : 1 080 pixels
Frame rate                               : 23.976 (24000/1001) FPS
Stream size                              : 2.01 GiB (84%)
Language                                 : Spanish
Ses 1
Format                                   : E-AC-3
Duration                                 : 43 min 18 s
Channel(s)                               : 6 channels
Frame rate                               : 31.250 FPS (1536 SPF)
Stream size                              : 198 MiB (8%)
Language                                 : Spanish (Latin America)
Ses 2
Format                                   : E-AC-3
Duration                                 : 43 min 18 s
Channel(s)                               : 6 channels
Frame rate                               : 31.250 FPS (1536 SPF)
Stream size                              : 198 MiB (8%)
Language                                 : English
Altyazı  #1
Format                                   : UTF-8
Codec ID/Info                            : UTF-8 Plain Altyazı 
Duration                                 : 40 min 42 s
Frame rate                               : 0.276 FPS
Stream size                              : 25.8 KiB (0%)
Language                                 : Spanish (Latin America)
Altyazı  #2
Format                                   : UTF-8
Codec ID/Info                            : UTF-8 Plain Altyazı 
Duration                                 : 40 min 42 s
Frame rate                               : 0.323 FPS
Stream size                              : 30.1 KiB (0%)
Language                                 : Spanish (Latin America)
Altyazı  #3
Format                                   : UTF-8
Codec ID/Info                            : UTF-8 Plain Altyazı 
Duration                                 : 42 min 45 s
Frame rate                               : 0.007 FPS
Stream size                              : 453 Bytes (0%)
Language                                 : English
Altyazı  #4
Format                                   : UTF-8
Codec ID/Info                            : UTF-8 Plain Altyazı 
Duration                                 : 42 min 42 s
Frame rate                               : 0.263 FPS
Stream size                              : 22.3 KiB (0%)
Language                                 : English
Altyazı  #5
Format                                   : UTF-8
Codec ID/Info                            : UTF-8 Plain Altyazı 
Duration                                 : 40 min 44 s
Frame rate                               : 0.301 FPS
Stream size                              : 29.7 KiB (0%)
Language                                 : English
Altyazı  #6
Format                                   : UTF-8
Codec ID/Info                            : UTF-8 Plain Altyazı 
Duration                                 : 42 min 42 s
Frame rate                               : 0.253 FPS
Stream size                              : 35.5 KiB (0%)
Language                                 : Arabic
Altyazı  #7
Format                                   : UTF-8
Codec ID/Info                            : UTF-8 Plain Altyazı 
Duration                                 : 42 min 42 s
Frame rate                               : 0.262 FPS
Stream size                              : 20.4 KiB (0%)
Language                                 : Czech
Altyazı  #8
Format                                   : UTF-8
Codec ID/Info                            : UTF-8 Plain Altyazı 
Duration                                 : 42 min 42 s
Frame rate                               : 0.260 FPS
Stream size                              : 22.2 KiB (0%)
Language                                 : German
Altyazı  #9
Format                                   : UTF-8
Codec ID/Info                            : UTF-8 Plain Altyazı 
Duration                                 : 42 min 42 s
Frame rate                               : 0.242 FPS
Stream size                              : 35.1 KiB (0%)
Language                                 : Greek
Altyazı  #10
Format                                   : UTF-8
Codec ID/Info                            : UTF-8 Plain Altyazı 
Duration                                 : 42 min 42 s
Frame rate                               : 0.260 FPS
Stream size                              : 21.6 KiB (0%)
Language                                 : French
Altyazı  #11
Format                                   : UTF-8
Codec ID/Info                            : UTF-8 Plain Altyazı 
Duration                                 : 40 min 42 s
Frame rate                               : 0.269 FPS
Stream size                              : 33.2 KiB (0%)
Language                                 : Hebrew
Altyazı  #12
Format                                   : UTF-8
Codec ID/Info                            : UTF-8 Plain Altyazı 
Duration                                 : 42 min 42 s
Frame rate                               : 0.241 FPS
Stream size                              : 19.6 KiB (0%)
Language                                 : Croatian
Altyazı  #13
Format                                   : UTF-8
Codec ID/Info                            : UTF-8 Plain Altyazı 
Duration                                 : 42 min 42 s
Frame rate                               : 0.254 FPS
Stream size                              : 21.0 KiB (0%)
Language                                 : Hungarian
Altyazı  #14
Format                                   : UTF-8
Codec ID/Info                            : UTF-8 Plain Altyazı 
Duration                                 : 42 min 42 s
Frame rate                               : 0.259 FPS
Stream size                              : 21.6 KiB (0%)
Language                                 : Italian
Altyazı  #15
Format                                   : UTF-8
Codec ID/Info                            : UTF-8 Plain Altyazı 
Duration                                 : 42 min 42 s
Frame rate                               : 0.254 FPS
Stream size                              : 20.0 KiB (0%)
Language                                 : Dutch
Altyazı  #16
Format                                   : UTF-8
Codec ID/Info                            : UTF-8 Plain Altyazı 
Duration                                 : 42 min 42 s
Frame rate                               : 0.241 FPS
Stream size                              : 18.9 KiB (0%)
Language                                 : Polish
Altyazı  #17
Format                                   : UTF-8
Codec ID/Info                            : UTF-8 Plain Altyazı 
Duration                                 : 42 min 42 s
Frame rate                               : 0.249 FPS
Stream size                              : 22.6 KiB (0%)
Language                                 : Portuguese (BR)
Altyazı  #18
Format                                   : UTF-8
Codec ID/Info                            : UTF-8 Plain Altyazı 
Duration                                 : 42 min 42 s
Frame rate                               : 0.253 FPS
Stream size                              : 23.2 KiB (0%)
Language                                 : Portuguese (PT)
Altyazı  #19
Format                                   : UTF-8
Codec ID/Info                            : UTF-8 Plain Altyazı 
Duration                                 : 42 min 42 s
Frame rate                               : 0.233 FPS
Stream size                              : 24.6 KiB (0%)
Language                                 : Romanian
Altyazı  #20
Format                                   : UTF-8
Codec ID/Info                            : UTF-8 Plain Altyazı 
Duration                                 : 42 min 42 s
Frame rate                               : 0.258 FPS
Stream size                              : 21.7 KiB (0%)
Language                                 : Türkçe
Altyazı  #21
Format                                   : UTF-8
Codec ID/Info                            : UTF-8 Plain Altyazı 
Duration                                 : 42 min 42 s
Frame rate                               : 0.254 FPS
Stream size                              : 34.5 KiB (0%)
Language                                 : Ukrainian


BÖLÜM 001

BÖLÜM 002
BÖLÜM 003
BÖLÜM 004
BÖLÜM 005
BÖLÜM 006
BÖLÜM 007
BÖLÜM 008
BÖLÜM 009
BÖLÜM 010
BÖLÜM 011
BÖLÜM 012
BÖLÜM 013
[/QUOTE]

Submit "Eva Lasting S01 1080p Türkçe Altyazılı NF WEB-DL H264 DDP5.1" to Digg Submit "Eva Lasting S01 1080p Türkçe Altyazılı NF WEB-DL H264 DDP5.1" to del.icio.us Submit "Eva Lasting S01 1080p Türkçe Altyazılı NF WEB-DL H264 DDP5.1" to StumbleUpon Submit "Eva Lasting S01 1080p Türkçe Altyazılı NF WEB-DL H264 DDP5.1" to Google

Etiketler: hiçbiri Etiketleri Düzenle
Katagoriler
Yabancı Diziler SuperUp Paylaşımları , ‎ 1080p Yabancı Diziler

Comments

  1. nItRo - ait Kullanıcı Resmi (Avatar)
1 2 3 4 5 6 7 8 9 10 11 12 13 14 15 16 17 18 19 20 21 22 23 24 25 26 27 28 29 30 31 32 33 34 35 36 37 38 39 40 41 42 43 44 45 46 47 48 49 50 51 52 53 54 55 56 57 58 59 60 61 62 63 64 65 66 67 68 69 70 71 72 73 74 75 76 77 78 79 80 81 82 83 84 85 86 87 88 89 90 91 92 93 94 95 96 97 98 99 100 101 102 103 104 105 106 107 108 109 110 111 112 113 114 115 116 117 118 119 120 121 122 123 124 125 126 127 128 129 130 131 132 133 134 135 136 137 138 139 140 141 142 143 144 145 146 147 148 149 150 151 152 153 154 155 156 157 158 159 160 161 162 163 164 165 166 167 168 169 170 171 172 173 174 175 176 177 178 179 180 181 182 183 184 185 186 187 188 189 190 191 192 193 194 195 196 197 198 199