• SuperUp nickli üyeye ait kullanıcı resmi (Avatar)
    2 Saat önce
    The Social Media Marketing Management Masterclass 2024 - Türkçe Altyazılı UDEMY LİNKİ Sosyal medya ihtiyaçlarında uzmanlaşmak için kapsamlı rehberiniz olan Sosyal Medya Pazarlama Masterclass 2024'e hoş geldiniz! Bu kurs 0 pratiktir ve ilk dersten itibaren gerçek zamanlı uygulamalı deneyim sunar. İşte en yüksek puan alan yorumcularımızdan bazılarının söyledikleri: "BU ADAMLAR INANILMAZ! Sosyal medya becerilerimi geliştirmek amacıyla birkaç kurs satın aldım. Hiçbiri buna yaklaşamadı. Bu kurs İHTİYACINIZ OLAN TEK ŞEY..." - Maya Popkin "Bu kurstan ne kadar çok şey öğrendiğimi yeterince vurgulayamıyorum. SMM konusunda bir kurs arayan yeni başlayan biriyseniz, bu tam size göre." - M.Rajesh Kumar "Sosyal Medya Yönetimi hakkında birkaç kurs sipariş ettim ve bu açık ara en iyisi." - I. G. "Kurs güncellenmiş ve eksiksiz bir Sosyal Medya Pazarlama Kursu. Serbest çalışan olarak kariyerimde ihtiyacım olduğunu bilmediğim pek çok şey öğrendim." - Laica Laping RAR ŞİFRESİ: SuperUp PART 1 PART 2 PART 3 PART 4 PART 5 PART 6 PART 7
    0 Cevap | 0 Görüntüleme
  • SuperUp nickli üyeye ait kullanıcı resmi (Avatar)
    2 Saat önce
    The Social Media Marketing Management Masterclass 2024 - Türkçe Altyazılı UDEMY LİNKİ Sosyal medya ihtiyaçlarında uzmanlaşmak için kapsamlı rehberiniz olan Sosyal Medya Pazarlama Masterclass 2024'e hoş geldiniz! Bu kurs 0 pratiktir ve ilk dersten itibaren gerçek zamanlı uygulamalı deneyim sunar. İşte en yüksek puan alan yorumcularımızdan bazılarının söyledikleri: "BU ADAMLAR INANILMAZ! Sosyal medya becerilerimi geliştirmek amacıyla birkaç kurs satın aldım. Hiçbiri buna yaklaşamadı. Bu kurs İHTİYACINIZ OLAN TEK ŞEY..." - Maya Popkin "Bu kurstan ne kadar çok şey öğrendiğimi yeterince vurgulayamıyorum. SMM konusunda bir kurs arayan yeni başlayan biriyseniz, bu tam size göre." - M.Rajesh Kumar "Sosyal Medya Yönetimi hakkında birkaç kurs sipariş ettim ve bu açık ara en iyisi." - I. G. "Kurs güncellenmiş ve eksiksiz bir Sosyal Medya Pazarlama Kursu. Serbest çalışan olarak kariyerimde ihtiyacım olduğunu bilmediğim pek çok şey öğrendim." - Laica Laping RAR ŞİFRESİ: SuperUp PART 1 PART 2 PART 3 PART 4 PART 5 PART 6 PART 7
    0 Cevap | 8 Görüntüleme
  • SuperUp nickli üyeye ait kullanıcı resmi (Avatar)
    2 Saat önce
    SuperUp kullanıcısının cevapladığı konu İstek Dizi Kategorisi Vip Üyelerimiz İçin Dizi İstek Bölümü
    sansürsüz olduğunu nerden anlayabiliriz usta? birkaç bölümden dakika:saniye bilgisi versen. ona göre kontrol edeceğim.
    2 Cevap | 15 Görüntüleme
  • SuperUp nickli üyeye ait kullanıcı resmi (Avatar)
    2 Saat önce
    LALIGA All Access - LaLiga: Mas alla del gol S01 1080p DUAL NF WEB-DL H264 DDP5.1 Atmos - TURG IMDB LİNKİ Tür: Belgesel LaLiga hakkındaki bu sürükleyici belgesel dizisinde, şanlı galibiyetlerden yürek burkan mağlubiyetlere kadar İspanyol futbolunun perde arkasında yaşananları keşfedin. FİLMDEN KARELER General Format : Matroska File size : 2.00 GiB Duration : 45 min 37 s Overall bit rate mode : Variable Overall bit rate : 6 269 kb/s Frame rate : 25.000 FPS Video Format : AVC Format/Info : Advanced Video Codec Duration : 45 min 36 s Width : 1 920 pixels Height : 1 080 pixels Frame rate : 25.000 FPS Stream size : 1.55 GiB (77%) Ses 1 Format : E-AC-3 Duration : 45 min 37 s Channel(s) : 6 channels Frame rate : 31.250 FPS (1536 SPF) Stream size : 209 MiB (10%) Language : Türkçe Ses 2 Format : E-AC-3 JOC Duration : 45 min 36 s Channel(s) : 6 channels Frame rate : 31.250 FPS (1536 SPF) Stream size : 251 MiB (12%) Language : Spanish Altyazı #1 Format : UTF-8 Codec ID/Info : UTF-8 Plain Altyazı Duration : 42 min 46 s Frame rate : 0.033 FPS Stream size : 2.54 KiB (0%) Language : Türkçe Altyazı #2 Format : UTF-8 Codec ID/Info : UTF-8 Plain Altyazı Duration : 44 min 3 s Frame rate : 0.232 FPS Stream size : 26.4 KiB (0%) Language : Türkçe Altyazı #3 Format : UTF-8 Codec ID/Info : UTF-8 Plain Altyazı Duration : 42 min 51 s Frame rate : 0.227 FPS Stream size : 29.0 KiB (0%) Language : Türkçe Altyazı #4 Format : UTF-8 Codec ID/Info : UTF-8 Plain Altyazı Duration : 40 min 46 s Frame rate : 0.026 FPS Stream size : 2.60 KiB (0%) Language : Spanish Altyazı #5 Format : UTF-8 Codec ID/Info : UTF-8 Plain Altyazı Duration : 44 min 10 s Frame rate : 0.266 FPS Stream size : 32.1 KiB (0%) Language : Spanish BÖLÜM 001 BÖLÜM 002 BÖLÜM 003 BÖLÜM 004 BÖLÜM 005 BÖLÜM 006 BÖLÜM 007 BÖLÜM 008
    0 Cevap | 0 Görüntüleme
  • SuperUp nickli üyeye ait kullanıcı resmi (Avatar)
    2 Saat önce
    LALIGA All Access - LaLiga: Mas alla del gol S01 1080p DUAL NF WEB-DL H264 DDP5.1 Atmos - TURG IMDB LİNKİ Tür: Belgesel LaLiga hakkındaki bu sürükleyici belgesel dizisinde, şanlı galibiyetlerden yürek burkan mağlubiyetlere kadar İspanyol futbolunun perde arkasında yaşananları keşfedin. FİLMDEN KARELER General Format : Matroska File size : 2.00 GiB Duration : 45 min 37 s Overall bit rate mode : Variable Overall bit rate : 6 269 kb/s Frame rate : 25.000 FPS Video Format : AVC Format/Info : Advanced Video Codec Duration : 45 min 36 s Width : 1 920 pixels Height : 1 080 pixels Frame rate : 25.000 FPS Stream size : 1.55 GiB (77%) Ses 1 Format : E-AC-3 Duration : 45 min 37 s Channel(s) : 6 channels Frame rate : 31.250 FPS (1536 SPF) Stream size : 209 MiB (10%) Language : Türkçe Ses 2 Format : E-AC-3 JOC Duration : 45 min 36 s Channel(s) : 6 channels Frame rate : 31.250 FPS (1536 SPF) Stream size : 251 MiB (12%) Language : Spanish Altyazı #1 Format : UTF-8 Codec ID/Info : UTF-8 Plain Altyazı Duration : 42 min 46 s Frame rate : 0.033 FPS Stream size : 2.54 KiB (0%) Language : Türkçe Altyazı #2 Format : UTF-8 Codec ID/Info : UTF-8 Plain Altyazı Duration : 44 min 3 s Frame rate : 0.232 FPS Stream size : 26.4 KiB (0%) Language : Türkçe Altyazı #3 Format : UTF-8 Codec ID/Info : UTF-8 Plain Altyazı Duration : 42 min 51 s Frame rate : 0.227 FPS Stream size : 29.0 KiB (0%) Language : Türkçe Altyazı #4 Format : UTF-8 Codec ID/Info : UTF-8 Plain Altyazı Duration : 40 min 46 s Frame rate : 0.026 FPS Stream size : 2.60 KiB (0%) Language : Spanish Altyazı #5 Format : UTF-8 Codec ID/Info : UTF-8 Plain Altyazı Duration : 44 min 10 s Frame rate : 0.266 FPS Stream size : 32.1 KiB (0%) Language : Spanish BÖLÜM 001 BÖLÜM 002 BÖLÜM 003 BÖLÜM 004 BÖLÜM 005 BÖLÜM 006 BÖLÜM 007 BÖLÜM 008
    0 Cevap | 4 Görüntüleme
  • SuperUp nickli üyeye ait kullanıcı resmi (Avatar)
    3 Saat önce
    Silsile (2014) Sansürsüz 1080p WEBRip x264 DD5.1 - TSRG IMDB LİNKİ Tür: Suç, Dram, Gerilim Sıcak bir yaz gecesi Ece, Amerika'dan yeni dönmüş olan Cenk ile birlikte Cenk'in kaldığı eve giderler. Bu sırada aralarındaki küllenmiş aşk alevlenir gibi olur. Cenk'in yakın dostu aldatılmak üzeredir. İkili birden evde yalnız olmadıklarını fark eder. Bir hırsızlık girişimi olur. Hırsızlığı ardından işlenen bir suç takip eder. Ece gider, Faruk gelir. Üç insan hem birbirlerinden sakladıklarıyla hem de bir suçla baş etmeye çalışır. Ancak bu düşündükleri kadar kolay olmayacaktır. Büyük şehirlerde yaşanan hayatların arasındaki karmaşık ilişkilerin, derin yaraların ve hayatın kırgınlığının sorgulandığı filmde, bu üç karakterin hayatlarını sonsuza kadar değiştirecek bir olaylar silsilesi yaşanır. Oyuncular: Nehir Erdoğan, Tardu Flordun, İlker Kaleli, Esra Bezen Bilgin, Serkan Keskin, Aytaç Uşun, Cem Özeren, Caner Arıkan, Hakan Karsak, Deniz Gürzumar FİLM TANITIM LİNKİ FİLMDEN KARELER General Format : Matroska File size : 4.08 GiB Duration : 1 h 45 min Overall bit rate : 5 511 kb/s Frame rate : 25.000 FPS Video Format : AVC Format/Info : Advanced Video Codec Duration : 1 h 45 min Width : 1 920 pixels Height : 1 080 pixels Frame rate : 25.000 FPS Stream size : 3.60 GiB (88%) Language : Türkçe Audio Format : E-AC-3 Duration : 1 h 45 min Channel(s) : 6 channels Frame rate : 31.250 FPS (1536 SPF) Stream size : 485 MiB (12%) Language : Türkçe Altyazı #1 Format : UTF-8 Codec ID/Info : UTF-8 Plain Altyazı Duration : 41 min 10 s Frame rate : 0.002 FPS Stream size : 456 Bytes (0%) Language : Türkçe Altyazı #2 Format : UTF-8 Codec ID/Info : UTF-8 Plain Altyazı Duration : 1 h 45 min Frame rate : 0.254 FPS Stream size : 46.1 KiB (0%) Language : German Altyazı #3 Format : UTF-8 Codec ID/Info : UTF-8 Plain Altyazı Duration : 1 h 42 min Frame rate : 0.251 FPS Stream size : 46.4 KiB (0%) Language : French Altyazı #4 Format : UTF-8 Codec ID/Info : UTF-8 Plain Altyazı Duration : 1 h 37 min Frame rate : 0.270 FPS Stream size : 54.2 KiB (0%) Language : English Altyazı #5 Format : UTF-8 Codec ID/Info : UTF-8 Plain Altyazı Duration : 1 h 45 min Frame rate : 0.248 FPS Stream size : 46.7 KiB (0%) Language : Polish Altyazı #6 Format : UTF-8 Codec ID/Info : UTF-8 Plain Altyazı Duration : 1 h 45 min Frame rate : 0.270 FPS Stream size : 62.8 KiB (0%) Language : Türkçe Altyazı #7 Format : UTF-8 Codec ID/Info : UTF-8 Plain Altyazı Duration : 34 min 40 s Frame rate : 0.001 FPS Stream size : 192 Bytes (0%) İNDİRME LİNKİ https://iniyor.net/tb/25478a7d85ae93489f6a254627aa29d9/Silsile%202014%20Yerli%20Sans%C3%BCrs%C3%BCz%201080p%20WebRip%20x264%20E-AC3%20DD%205.1%20TSRG.mkv.html SuperUp turbobit.net, gofile.io, doodrive.com, megaup.net, send.cm, 1fichier.com, mixdrop.ag, pixeldrain.com, streamtape.com, rapidgator.net
    0 Cevap | 0 Görüntüleme
  • SuperUp nickli üyeye ait kullanıcı resmi (Avatar)
    3 Saat önce
    Silsile (2014) Sansürsüz 1080p WEBRip x264 DD5.1 - TSRG IMDB LİNKİ Tür: Suç, Dram, Gerilim Sıcak bir yaz gecesi Ece, Amerika'dan yeni dönmüş olan Cenk ile birlikte Cenk'in kaldığı eve giderler. Bu sırada aralarındaki küllenmiş aşk alevlenir gibi olur. Cenk'in yakın dostu aldatılmak üzeredir. İkili birden evde yalnız olmadıklarını fark eder. Bir hırsızlık girişimi olur. Hırsızlığı ardından işlenen bir suç takip eder. Ece gider, Faruk gelir. Üç insan hem birbirlerinden sakladıklarıyla hem de bir suçla baş etmeye çalışır. Ancak bu düşündükleri kadar kolay olmayacaktır. Büyük şehirlerde yaşanan hayatların arasındaki karmaşık ilişkilerin, derin yaraların ve hayatın kırgınlığının sorgulandığı filmde, bu üç karakterin hayatlarını sonsuza kadar değiştirecek bir olaylar silsilesi yaşanır. Oyuncular: Nehir Erdoğan, Tardu Flordun, İlker Kaleli, Esra Bezen Bilgin, Serkan Keskin, Aytaç Uşun, Cem Özeren, Caner Arıkan, Hakan Karsak, Deniz Gürzumar FİLM TANITIM LİNKİ FİLMDEN KARELER General Format : Matroska File size : 4.08 GiB Duration : 1 h 45 min Overall bit rate : 5 511 kb/s Frame rate : 25.000 FPS Video Format : AVC Format/Info : Advanced Video Codec Duration : 1 h 45 min Width : 1 920 pixels Height : 1 080 pixels Frame rate : 25.000 FPS Stream size : 3.60 GiB (88%) Language : Türkçe Audio Format : E-AC-3 Duration : 1 h 45 min Channel(s) : 6 channels Frame rate : 31.250 FPS (1536 SPF) Stream size : 485 MiB (12%) Language : Türkçe Altyazı #1 Format : UTF-8 Codec ID/Info : UTF-8 Plain Altyazı Duration : 41 min 10 s Frame rate : 0.002 FPS Stream size : 456 Bytes (0%) Language : Türkçe Altyazı #2 Format : UTF-8 Codec ID/Info : UTF-8 Plain Altyazı Duration : 1 h 45 min Frame rate : 0.254 FPS Stream size : 46.1 KiB (0%) Language : German Altyazı #3 Format : UTF-8 Codec ID/Info : UTF-8 Plain Altyazı Duration : 1 h 42 min Frame rate : 0.251 FPS Stream size : 46.4 KiB (0%) Language : French Altyazı #4 Format : UTF-8 Codec ID/Info : UTF-8 Plain Altyazı Duration : 1 h 37 min Frame rate : 0.270 FPS Stream size : 54.2 KiB (0%) Language : English Altyazı #5 Format : UTF-8 Codec ID/Info : UTF-8 Plain Altyazı Duration : 1 h 45 min Frame rate : 0.248 FPS Stream size : 46.7 KiB (0%) Language : Polish Altyazı #6 Format : UTF-8 Codec ID/Info : UTF-8 Plain Altyazı Duration : 1 h 45 min Frame rate : 0.270 FPS Stream size : 62.8 KiB (0%) Language : Türkçe Altyazı #7 Format : UTF-8 Codec ID/Info : UTF-8 Plain Altyazı Duration : 34 min 40 s Frame rate : 0.001 FPS Stream size : 192 Bytes (0%) İNDİRME LİNKİ https://iniyor.net/tb/25478a7d85ae93489f6a254627aa29d9/Silsile%202014%20Yerli%20Sans%C3%BCrs%C3%BCz%201080p%20WebRip%20x264%20E-AC3%20DD%205.1%20TSRG.mkv.html SuperUp turbobit.net, gofile.io, doodrive.com, megaup.net, send.cm, 1fichier.com, mixdrop.ag, pixeldrain.com, streamtape.com, rapidgator.net
    0 Cevap | 4 Görüntüleme
  • SuperUp nickli üyeye ait kullanıcı resmi (Avatar)
    3 Saat önce
    Nefesini Tut 2 - Don't Breathe 2 (2021) 1080p DUAL NF WEB-DL H264 DDP5.1 - TURG IMDB LİNKİ Tür: Gerilim, Korku Nefesini Tut 2'de, aradan sekiz yıl geçmişken Nordstrom, 11 yaşındaki Phoenix ile birlikte yaşamaktadır. Sarhoş bir sürücü tarafından kendisinden çalınan ailesini böylece yeniden yaratmış ve her zaman hakkı olduğunu düşündüğü çarpık adaleti bulmuştur. Davetsiz misafirler bir kez daha evine geldiğinde bu sefer Phoenix'e odaklanan Norman, içinde saklı olanı yeni ve beklenmedik şekillerde bir kez daha ortaya çıkaracaktır. Oyuncular: Stephen Lang, Madelyn Grace, Brendan Sexton III, Adam Young, Rocci Williams, Christian Zagia, Bobby Schofield, Stephanie Arcila, Diaana Babnicova FİLM TANITIM LİNKİ FİLMDEN KARELER General Format : Matroska File size : 5.75 GiB Duration : 1 h 38 min Overall bit rate mode : Variable Overall bit rate : 8 351 kb/s Frame rate : 23.976 FPS Video Format : AVC Format/Info : Advanced Video Codec Duration : 1 h 38 min Width : 1 920 pixels Height : 1 080 pixels Frame rate : 23.976 (24000/1001) FPS Stream size : 4.86 GiB (85%) Ses 1 Format : E-AC-3 Duration : 1 h 38 min Channel(s) : 6 channels Frame rate : 31.250 FPS (1536 SPF) Stream size : 451 MiB (8%) Language : Türkçe Ses 2 Format : E-AC-3 Duration : 1 h 38 min Channel(s) : 6 channels Frame rate : 31.250 FPS (1536 SPF) Stream size : 451 MiB (8%) Language : English Altyazı #1 Format : UTF-8 Codec ID/Info : UTF-8 Plain Altyazı Duration : 1 h 27 min Frame rate : 0.001 FPS Stream size : 131 Bytes (0%) Language : Türkçe Altyazı #2 Format : UTF-8 Codec ID/Info : UTF-8 Plain Altyazı Duration : 1 h 36 min Frame rate : 0.086 FPS Stream size : 10.7 KiB (0%) Language : Türkçe Altyazı #3 Format : UTF-8 Codec ID/Info : UTF-8 Plain Altyazı Duration : 1 h 35 min Frame rate : 0.160 FPS Stream size : 17.1 KiB (0%) Language : English İNDİRME LİNKİ https://iniyor.net/tb/4f949f5791391f4ab5593976ab63e86b/Dont.Breathe.2.2021.1080p.NF.WEB-DL.DDP5.1.H.264-TURG.mkv.html SuperUp turbobit.net, gofile.io, doodrive.com, megaup.net, send.cm, 1fichier.com, mixdrop.ag, pixeldrain.com, streamtape.com, rapidgator.net
    0 Cevap | 0 Görüntüleme
  • SuperUp nickli üyeye ait kullanıcı resmi (Avatar)
    3 Saat önce
    Nefesini Tut 2 - Don't Breathe 2 (2021) 1080p DUAL NF WEB-DL H264 DDP5.1 - TURG IMDB LİNKİ Tür: Gerilim, Korku Nefesini Tut 2'de, aradan sekiz yıl geçmişken Nordstrom, 11 yaşındaki Phoenix ile birlikte yaşamaktadır. Sarhoş bir sürücü tarafından kendisinden çalınan ailesini böylece yeniden yaratmış ve her zaman hakkı olduğunu düşündüğü çarpık adaleti bulmuştur. Davetsiz misafirler bir kez daha evine geldiğinde bu sefer Phoenix'e odaklanan Norman, içinde saklı olanı yeni ve beklenmedik şekillerde bir kez daha ortaya çıkaracaktır. Oyuncular: Stephen Lang, Madelyn Grace, Brendan Sexton III, Adam Young, Rocci Williams, Christian Zagia, Bobby Schofield, Stephanie Arcila, Diaana Babnicova FİLM TANITIM LİNKİ FİLMDEN KARELER General Format : Matroska File size : 5.75 GiB Duration : 1 h 38 min Overall bit rate mode : Variable Overall bit rate : 8 351 kb/s Frame rate : 23.976 FPS Video Format : AVC Format/Info : Advanced Video Codec Duration : 1 h 38 min Width : 1 920 pixels Height : 1 080 pixels Frame rate : 23.976 (24000/1001) FPS Stream size : 4.86 GiB (85%) Ses 1 Format : E-AC-3 Duration : 1 h 38 min Channel(s) : 6 channels Frame rate : 31.250 FPS (1536 SPF) Stream size : 451 MiB (8%) Language : Türkçe Ses 2 Format : E-AC-3 Duration : 1 h 38 min Channel(s) : 6 channels Frame rate : 31.250 FPS (1536 SPF) Stream size : 451 MiB (8%) Language : English Altyazı #1 Format : UTF-8 Codec ID/Info : UTF-8 Plain Altyazı Duration : 1 h 27 min Frame rate : 0.001 FPS Stream size : 131 Bytes (0%) Language : Türkçe Altyazı #2 Format : UTF-8 Codec ID/Info : UTF-8 Plain Altyazı Duration : 1 h 36 min Frame rate : 0.086 FPS Stream size : 10.7 KiB (0%) Language : Türkçe Altyazı #3 Format : UTF-8 Codec ID/Info : UTF-8 Plain Altyazı Duration : 1 h 35 min Frame rate : 0.160 FPS Stream size : 17.1 KiB (0%) Language : English İNDİRME LİNKİ https://iniyor.net/tb/4f949f5791391f4ab5593976ab63e86b/Dont.Breathe.2.2021.1080p.NF.WEB-DL.DDP5.1.H.264-TURG.mkv.html SuperUp turbobit.net, gofile.io, doodrive.com, megaup.net, send.cm, 1fichier.com, mixdrop.ag, pixeldrain.com, streamtape.com, rapidgator.net
    0 Cevap | 5 Görüntüleme
  • SuperUp nickli üyeye ait kullanıcı resmi (Avatar)
    4 Saat önce
    House of the Dragon S02 1080p MAX WEB-DL H264 DDP5.1 Atmos - TURG 5. BÖLÜM EKLENDİ IMDB LİNKİ Tür: Dram, George R.R. Martin'in "Fire & Blood" adlı eserinden uyarlanan ve Game of Thrones'taki olaylardan 200 yıl öncesini konu alan dizi, Targaryen Hanesi'nin gücünün zirvesinde olduğu dönemde bir iç veraset savaşını anlatıyor. FİLMDEN KARELER General Format : Matroska File size : 1.83 GiB Duration : 58 min 3 s Overall bit rate mode : Variable Overall bit rate : 4 502 kb/s Frame rate : 23.976 FPS Video Format : AVC Format/Info : Advanced Video Codec Duration : 58 min 3 s Width : 1 920 pixels Height : 960 pixels Frame rate : 23.976 (24000/1001) FPS Stream size : 1.51 GiB (83%) Ses 1 Format : E-AC-3 JOC Duration : 58 min 3 s Channel(s) : 6 channels Frame rate : 31.250 FPS (1536 SPF) Stream size : 266 MiB (14%) Language : English Ses 2 Format : E-AC-3 Duration : 58 min 3 s Channel(s) : 2 channels Frame rate : 31.250 FPS (1536 SPF) Stream size : 53.2 MiB (3%) Language : Türkçe Altyazı #1 Format : UTF-8 Duration : 54 min 12 s Frame rate : 0.194 FPS Stream size : 21.4 KiB (0%) Language : English Altyazı #2 Format : UTF-8 Duration : 57 min 46 s Frame rate : 0.230 FPS Stream size : 23.8 KiB (0%) Language : English Altyazı #3 Format : UTF-8 Duration : 54 min 11 s Frame rate : 0.171 FPS Stream size : 19.8 KiB (0%) Language : Türkçe BÖLÜM 001 BÖLÜM 002 BÖLÜM 003 BÖLÜM 004 BÖLÜM 005
    0 Cevap | 0 Görüntüleme
  • SuperUp nickli üyeye ait kullanıcı resmi (Avatar)
    4 Saat önce
    5. BÖLÜM EKLENDİ
    18 Cevap | 420 Görüntüleme
  • SuperUp nickli üyeye ait kullanıcı resmi (Avatar)
    4 Saat önce
    Aşk Adası S01 1080p GAiN WEB-DL H264 - TURG 11. BÖLÜM EKLENDİ Aşk Adası'na hoş geldiniz! 7 kadın, 7 erkek ve tek hedef var: GERÇEK AŞK! FİLMDEN KARELER General Format : Matroska File size : 1.39 GiB Duration : 44 min 22 s Overall bit rate : 4 469 kb/s Frame rate : 25.000 FPS Video Format : AVC Format/Info : Advanced Video Codec Duration : 44 min 22 s Width : 1 920 pixels Height : 1 080 pixels Frame rate : 25.000 FPS Stream size : 1.35 GiB (97%) Language : Tatar Audio Format : AAC LC Format/Info : Advanced Audio Codec Low Complexity Duration : 44 min 22 s Channel(s) : 2 channels Frame rate : 43.066 FPS (1024 SPF) Stream size : 35.6 MiB (3%) Language : Türkçe BÖLÜM 001 BÖLÜM 002 BÖLÜM 003 BÖLÜM 004 BÖLÜM 005 BÖLÜM 006 BÖLÜM 007 BÖLÜM 008 BÖLÜM 009 BÖLÜM 010 BÖLÜM 011
    0 Cevap | 0 Görüntüleme
  • SuperUp nickli üyeye ait kullanıcı resmi (Avatar)
    4 Saat önce
    SuperUp kullanıcısının cevapladığı konu Aşk Adası S01 1080p GAiN WEB-DL H264 - TURG Kategorisi 1080p Yerli Diziler
    11. BÖLÜM EKLENDİ
    17 Cevap | 347 Görüntüleme
  • SuperUp nickli üyeye ait kullanıcı resmi (Avatar)
    6 Saat önce
    Cengiz Han - Mongol (2007) 2160p Türkçe Dublaj WEB-DL - SuperUp IMDB LİNKİ Tür: Tarih, Macera, Savaş, Aksiyon 'Moğol' üçlemesinin ilk filmi olan Cengiz Han, genç Temuçin'in savaşarak esaretten kurtuluşunu ve dünyanın yarısını talan eden uçsuz bucaksız Moğol İmparatorluğu'nun kurucusu olan acımasız Cengiz Han ünvanına sahip oluşunu konu alıyor. Destansı bir dille sinemaya aktarılan film, nefes kesici savaş sahneleri içeriyor. Oyuncular: Sun Honglei, Khulan Chuluun, Baasanjav Mijid, He Qi, Ben Hon Sun, Ji Ri Mu Tu, You Er, Huntun Batu FİLM TANITIM LİNKİ General Format : Matroska File size : 12.6 GiB Duration : 2 h 0 min Overall bit rate : 15.0 Mb/s Frame rate : 25.000 FPS Language : und Video Format : VP9 Duration : 2 h 0 min Width : 3 840 pixels Height : 2 160 pixels Frame rate : 25.000 FPS Audio Format : Opus Duration : 2 h 0 min Channel(s) : 2 channels İNDİRME LİNKİ https://iniyor.net/tb/597a4d62508a005d3c41a21f1072da5c/Cengiz%20Han%20-%20Mongol%204K%20WEB-DL%20-%20SuperUp.mkv.html SuperUp turbobit.net, gofile.io, doodrive.com, megaup.net, send.cm, 1fichier.com, mixdrop.ag, pixeldrain.com, streamtape.com, rapidgator.net
    0 Cevap | 2 Görüntüleme
  • SuperUp nickli üyeye ait kullanıcı resmi (Avatar)
    6 Saat önce
    Cengiz Han - Mongol (2007) 2160p Türkçe Dublaj WEB-DL - SuperUp IMDB LİNKİ Tür: Tarih, Macera, Savaş, Aksiyon 'Moğol' üçlemesinin ilk filmi olan Cengiz Han, genç Temuçin'in savaşarak esaretten kurtuluşunu ve dünyanın yarısını talan eden uçsuz bucaksız Moğol İmparatorluğu'nun kurucusu olan acımasız Cengiz Han ünvanına sahip oluşunu konu alıyor. Destansı bir dille sinemaya aktarılan film, nefes kesici savaş sahneleri içeriyor. Oyuncular: Sun Honglei, Khulan Chuluun, Baasanjav Mijid, He Qi, Ben Hon Sun, Ji Ri Mu Tu, You Er, Huntun Batu FİLM TANITIM LİNKİ General Format : Matroska File size : 12.6 GiB Duration : 2 h 0 min Overall bit rate : 15.0 Mb/s Frame rate : 25.000 FPS Language : und Video Format : VP9 Duration : 2 h 0 min Width : 3 840 pixels Height : 2 160 pixels Frame rate : 25.000 FPS Audio Format : Opus Duration : 2 h 0 min Channel(s) : 2 channels İNDİRME LİNKİ https://iniyor.net/tb/597a4d62508a005d3c41a21f1072da5c/Cengiz%20Han%20-%20Mongol%204K%20WEB-DL%20-%20SuperUp.mkv.html SuperUp turbobit.net, gofile.io, doodrive.com, megaup.net, send.cm, 1fichier.com, mixdrop.ag, pixeldrain.com, streamtape.com, rapidgator.net
    0 Cevap | 3 Görüntüleme
  • SuperUp nickli üyeye ait kullanıcı resmi (Avatar)
    6 Saat önce
    Gerçeğe Çağrı - Total Recall (2012) 810p DUAL EXTENDED BluRay x264 - PRoDJi IMDB LİNKİ Tür: Aksiyon, Bilim-Kurgu, Gerilim 1990'ın bilim kurgu klasiğinin aksiyon dolu bu yeniden çevrimi, akıl almaz bir prosedürde korkunç bir terslik olmasının ardından kaçak duruma düşen bir adamın hikayesi. Oyuncular: Colin Farrell, Jessica Biel, Kate Beckinsale, Ethan Hawke, Bill Nighy, John Cho, Bryan Cranston, Dylan Smith, Cam Clarke, Bokeem Woodbine FİLM TANITIM LİNKİ FİLMDEN KARELER General Format : Matroska File size : 7.14 GiB Duration : 2 h 10 min Overall bit rate : 7 848 kb/s Frame rate : 23.976 FPS Video Format : AVC Format/Info : Advanced Video Codec Duration : 2 h 10 min Width : 1 440 pixels Height : 600 pixels Frame rate : 23.976 FPS Stream size : 5.04 GiB (71%) Language : English Ses 1 Format : AC-3 Format/Info : Audio Coding 3 Duration : 2 h 10 min Channel(s) : 6 channels Frame rate : 31.250 FPS (1536 SPF) Stream size : 596 MiB (8%) Language : Türkçe Ses 2 Format : DTS Duration : 2 h 10 min Channel(s) : 6 channels Frame rate : 93.750 FPS (512 SPF) Stream size : 1.37 GiB (19%) Language : English Altyazı #1 Format : UTF-8 Codec ID/Info : UTF-8 Plain Altyazı Language : English Altyazı #2 Format : UTF-8 Codec ID/Info : UTF-8 Plain Altyazı Language : Türkçe İNDİRME LİNKİ https://iniyor.net/tb/627d55e1925234d4496c034b0e860667/Total.Recall.2012.EXTENDED.DC.BluRay.810p.DTS.x264-PRoDJi.mkv.html SuperUp turbobit.net, gofile.io, doodrive.com, megaup.net, send.cm, 1fichier.com, mixdrop.ag, pixeldrain.com, streamtape.com, rapidgator.net
    0 Cevap | 4 Görüntüleme
  • SuperUp nickli üyeye ait kullanıcı resmi (Avatar)
    6 Saat önce
    Gerçeğe Çağrı - Total Recall (2012) 810p DUAL EXTENDED BluRay x264 - PRoDJi IMDB LİNKİ Tür: Aksiyon, Bilim-Kurgu, Gerilim 1990'ın bilim kurgu klasiğinin aksiyon dolu bu yeniden çevrimi, akıl almaz bir prosedürde korkunç bir terslik olmasının ardından kaçak duruma düşen bir adamın hikayesi. Oyuncular: Colin Farrell, Jessica Biel, Kate Beckinsale, Ethan Hawke, Bill Nighy, John Cho, Bryan Cranston, Dylan Smith, Cam Clarke, Bokeem Woodbine FİLM TANITIM LİNKİ FİLMDEN KARELER General Format : Matroska File size : 7.14 GiB Duration : 2 h 10 min Overall bit rate : 7 848 kb/s Frame rate : 23.976 FPS Video Format : AVC Format/Info : Advanced Video Codec Duration : 2 h 10 min Width : 1 440 pixels Height : 600 pixels Frame rate : 23.976 FPS Stream size : 5.04 GiB (71%) Language : English Ses 1 Format : AC-3 Format/Info : Audio Coding 3 Duration : 2 h 10 min Channel(s) : 6 channels Frame rate : 31.250 FPS (1536 SPF) Stream size : 596 MiB (8%) Language : Türkçe Ses 2 Format : DTS Duration : 2 h 10 min Channel(s) : 6 channels Frame rate : 93.750 FPS (512 SPF) Stream size : 1.37 GiB (19%) Language : English Altyazı #1 Format : UTF-8 Codec ID/Info : UTF-8 Plain Altyazı Language : English Altyazı #2 Format : UTF-8 Codec ID/Info : UTF-8 Plain Altyazı Language : Türkçe İNDİRME LİNKİ https://iniyor.net/tb/627d55e1925234d4496c034b0e860667/Total.Recall.2012.EXTENDED.DC.BluRay.810p.DTS.x264-PRoDJi.mkv.html SuperUp turbobit.net, gofile.io, doodrive.com, megaup.net, send.cm, 1fichier.com, mixdrop.ag, pixeldrain.com, streamtape.com, rapidgator.net
    0 Cevap | 3 Görüntüleme
  • SuperUp nickli üyeye ait kullanıcı resmi (Avatar)
    6 Saat önce
    Kan - Deli Kadir (1977) 720p WEB-DL - SuperUp IMDB LİNKİ Tür: Aksiyon, Dram, Suç Acımasız şartlar altında geçen çocukluğunun ardından ünlü bir tetikçi olan Kadir bir mafya hesaplaşmasının ortasında kalır. Yoksulluk çaresizlik neticesinde küçük yaşlarda suça bulaşmak zorunda kalan bir insanın hikayesi. Oyuncular: Kadir İnanır, Necla Nazır, Yıldırım Gencer, Suna Yıldızoğlu, İhsan Yüce, Baykal Kent, Levent İnanır, Dündar Aydınlı, Remzi Jöntürk, FİLMDEN KARELER General Format : Matroska File size : 553 MiB Duration : 1 h 12 min Overall bit rate : 1 070 kb/s Frame rate : 25.000 FPS Video Format : AVC Format/Info : Advanced Video Codec Duration : 1 h 12 min Width : 1 280 pixels Height : 720 pixels Frame rate : 25.000 FPS Stream size : 486 MiB (88%) Audio Format : AAC LC Format/Info : Advanced Audio Codec Low Complexity Duration : 1 h 12 min Channel(s) : 2 channels Frame rate : 43.066 FPS (1024 SPF) Stream size : 66.2 MiB (12%) Language : English İNDİRME LİNKİ https://iniyor.net/tb/659e622aea7e6cc626f7ab72d99e620b/Kan%20-%20Deli%20Kadir%20720p%20WEB-DL%20-%20SuperUp.mkv.html SuperUp turbobit.net, gofile.io, doodrive.com, megaup.net, send.cm, 1fichier.com, mixdrop.ag, pixeldrain.com, streamtape.com, rapidgator.net
    0 Cevap | 3 Görüntüleme
  • SuperUp nickli üyeye ait kullanıcı resmi (Avatar)
    6 Saat önce
    Kan - Deli Kadir (1977) 720p WEB-DL - SuperUp IMDB LİNKİ Tür: Aksiyon, Dram, Suç Acımasız şartlar altında geçen çocukluğunun ardından ünlü bir tetikçi olan Kadir bir mafya hesaplaşmasının ortasında kalır. Yoksulluk çaresizlik neticesinde küçük yaşlarda suça bulaşmak zorunda kalan bir insanın hikayesi. Oyuncular: Kadir İnanır, Necla Nazır, Yıldırım Gencer, Suna Yıldızoğlu, İhsan Yüce, Baykal Kent, Levent İnanır, Dündar Aydınlı, Remzi Jöntürk, FİLMDEN KARELER General Format : Matroska File size : 553 MiB Duration : 1 h 12 min Overall bit rate : 1 070 kb/s Frame rate : 25.000 FPS Video Format : AVC Format/Info : Advanced Video Codec Duration : 1 h 12 min Width : 1 280 pixels Height : 720 pixels Frame rate : 25.000 FPS Stream size : 486 MiB (88%) Audio Format : AAC LC Format/Info : Advanced Audio Codec Low Complexity Duration : 1 h 12 min Channel(s) : 2 channels Frame rate : 43.066 FPS (1024 SPF) Stream size : 66.2 MiB (12%) Language : English İNDİRME LİNKİ https://iniyor.net/tb/659e622aea7e6cc626f7ab72d99e620b/Kan%20-%20Deli%20Kadir%20720p%20WEB-DL%20-%20SuperUp.mkv.html SuperUp turbobit.net, gofile.io, doodrive.com, megaup.net, send.cm, 1fichier.com, mixdrop.ag, pixeldrain.com, streamtape.com, rapidgator.net
    0 Cevap | 4 Görüntüleme
  • SuperUp nickli üyeye ait kullanıcı resmi (Avatar)
    6 Saat önce
    Gangsterin Kaderi - Bullitt (1968) 720p TR - TSRG IMDB LİNKİ Tür: Aksiyon, Suç, Gerilim, Romantik, Dram Dedektif Frank Bullitt'in yeni görevi oldukça basit görünmektedir. Haftasonu süresince önemli bir davanın tanığı olan bir yıldızı korumak. Ama daha gece bitmeden tanık vücudundaki tabanca mermileriyle yere yıkılmış ve ölü yatmaktadır; aklı başında ve seri polis Bullitt ise onu vuranlar ve yöneticilerini yere serene kadar dinlenmeyecektir. Oyuncular: Steve McQueen, Robert Vaughn, Jacqueline Bisset, Don Gordon, Robert Duvall, Simon Oakland, Norman Fell, Georg Stanford Brown, Justin Tarr, Carl Reindel FİLM TANITIM LİNKİ FİLMDEN KARELER General Format : Matroska File size : 1.35 GiB Duration : 1 h 53 min Overall bit rate : 1 700 kb/s Frame rate : 23.976 FPS Video Format : AVC Format/Info : Advanced Video Codec Duration : 1 h 53 min Width : 1 280 pixels Height : 720 pixels Frame rate : 23.976 (24000/1001) FPS Stream size : 1.19 GiB (88%) Audio Format : AAC LC Format/Info : Advanced Audio Codec Low Complexity Duration : 1 h 53 min Channel(s) : 2 channels Frame rate : 43.066 FPS (1024 SPF) Stream size : 161 MiB (12%) Language : Türkçe İNDİRME LİNKİ https://iniyor.net/tb/0fa1add3535b21986deed489d41a132c/Gangsterin%20Kaderi-Bullitt%201968%20TR%20720p%20BrRipTurkSeed.mkv.html SuperUp turbobit.net, gofile.io, doodrive.com, megaup.net, send.cm, 1fichier.com, mixdrop.ag, pixeldrain.com, streamtape.com, rapidgator.net
    0 Cevap | 2 Görüntüleme
  • SuperUp nickli üyeye ait kullanıcı resmi (Avatar)
    6 Saat önce
    Gangsterin Kaderi - Bullitt (1968) 720p TR - TSRG IMDB LİNKİ Tür: Aksiyon, Suç, Gerilim, Romantik, Dram Dedektif Frank Bullitt'in yeni görevi oldukça basit görünmektedir. Haftasonu süresince önemli bir davanın tanığı olan bir yıldızı korumak. Ama daha gece bitmeden tanık vücudundaki tabanca mermileriyle yere yıkılmış ve ölü yatmaktadır; aklı başında ve seri polis Bullitt ise onu vuranlar ve yöneticilerini yere serene kadar dinlenmeyecektir. Oyuncular: Steve McQueen, Robert Vaughn, Jacqueline Bisset, Don Gordon, Robert Duvall, Simon Oakland, Norman Fell, Georg Stanford Brown, Justin Tarr, Carl Reindel FİLM TANITIM LİNKİ FİLMDEN KARELER General Format : Matroska File size : 1.35 GiB Duration : 1 h 53 min Overall bit rate : 1 700 kb/s Frame rate : 23.976 FPS Video Format : AVC Format/Info : Advanced Video Codec Duration : 1 h 53 min Width : 1 280 pixels Height : 720 pixels Frame rate : 23.976 (24000/1001) FPS Stream size : 1.19 GiB (88%) Audio Format : AAC LC Format/Info : Advanced Audio Codec Low Complexity Duration : 1 h 53 min Channel(s) : 2 channels Frame rate : 43.066 FPS (1024 SPF) Stream size : 161 MiB (12%) Language : Türkçe İNDİRME LİNKİ https://iniyor.net/tb/0fa1add3535b21986deed489d41a132c/Gangsterin%20Kaderi-Bullitt%201968%20TR%20720p%20BrRipTurkSeed.mkv.html SuperUp turbobit.net, gofile.io, doodrive.com, megaup.net, send.cm, 1fichier.com, mixdrop.ag, pixeldrain.com, streamtape.com, rapidgator.net
    0 Cevap | 2 Görüntüleme
  • SuperUp nickli üyeye ait kullanıcı resmi (Avatar)
    6 Saat önce
    Damsel (2024) 2160p WEB-DL H265 HDR Türkçe Altyazılı IMDB LİNKİ Tür: Fantastik, Aksiyon, Macera Princess Elodie, görev bilinciyle yakışıklı bir prensle evlenmeyi kabul eder, ancak kraliyet ailesinin onu kadim bir borcu ödemek için kurban olarak seçtiğini öğrenir. Ateş püskürten bir ejderhayla birlikte bir mağaraya atılan genç prenses hayatta kalmak için zekasına ve iradesine güvenmek zorundadır. Oyuncular: Millie Bobby Brown, Ray Winstone, Angela Bassett, Brooke Carter, Nick Robinson, Robin Wright, Milo Twomey, Nicole Joseph, Patrice Naiambana, Ulli Ackermann FİLM TANITIM LİNKİ FİLMDEN KARELER General Format : Matroska File size : 15.2 GiB Duration : 1 h 49 min Overall bit rate : 19.9 Mb/s Frame rate : 24.000 FPS Video Format : HEVC Format/Info : High Efficiency Video Coding Duration : 1 h 49 min Width : 3 840 pixels Height : 2 160 pixels Frame rate : 24.000 FPS Stream size : 13.7 GiB (90%) Ses 1 Format : E-AC-3 JOC Duration : 1 h 49 min Channel(s) : 6 channels Frame rate : 31.250 FPS (1536 SPF) Stream size : 602 MiB (4%) Language : German Ses 2 Format : E-AC-3 JOC Duration : 1 h 49 min Channel(s) : 6 channels Frame rate : 31.250 FPS (1536 SPF) Stream size : 602 MiB (4%) Language : English Altyazı #1 Format : UTF-8 Codec ID/Info : UTF-8 Plain Altyazı Language : German Altyazı #2 Format : UTF-8 Codec ID/Info : UTF-8 Plain Altyazı Language : German Altyazı #3 Format : UTF-8 Codec ID/Info : UTF-8 Plain Altyazı Language : German Altyazı #4 Format : UTF-8 Codec ID/Info : UTF-8 Plain Altyazı Language : German Altyazı #5 Format : UTF-8 Codec ID/Info : UTF-8 Plain Altyazı Language : English Altyazı #6 Format : UTF-8 Codec ID/Info : UTF-8 Plain Altyazı Language : Arabic Altyazı #7 Format : UTF-8 Codec ID/Info : UTF-8 Plain Altyazı Language : Catalan Altyazı #8 Format : UTF-8 Codec ID/Info : UTF-8 Plain Altyazı Language : Czech Altyazı #9 Format : UTF-8 Codec ID/Info : UTF-8 Plain Altyazı Language : Czech Altyazı #10 Format : UTF-8 Codec ID/Info : UTF-8 Plain Altyazı Language : Danish Altyazı #11 Format : UTF-8 Codec ID/Info : UTF-8 Plain Altyazı Language : Greek Altyazı #12 Format : UTF-8 Codec ID/Info : UTF-8 Plain Altyazı Language : Spanish Altyazı #13 Format : UTF-8 Codec ID/Info : UTF-8 Plain Altyazı Language : Spanish Altyazı #14 Format : UTF-8 Codec ID/Info : UTF-8 Plain Altyazı Language : Spanish Altyazı #15 Format : UTF-8 Codec ID/Info : UTF-8 Plain Altyazı Language : Spanish Altyazı #16 Format : UTF-8 Codec ID/Info : UTF-8 Plain Altyazı Language : Spanish Altyazı #17 Format : UTF-8 Codec ID/Info : UTF-8 Plain Altyazı Language : Spanish Altyazı #18 Format : UTF-8 Codec ID/Info : UTF-8 Plain Altyazı Language : Basque Altyazı #19 Format : UTF-8 Codec ID/Info : UTF-8 Plain Altyazı Language : Finnish Altyazı #20 Format : UTF-8 Codec ID/Info : UTF-8 Plain Altyazı Language : Filipino Altyazı #21 Format : UTF-8 Codec ID/Info : UTF-8 Plain Altyazı Language : Filipino Altyazı #22 Format : UTF-8 Codec ID/Info : UTF-8 Plain Altyazı Language : French Altyazı #23 Format : UTF-8 Codec ID/Info : UTF-8 Plain Altyazı Language : French Altyazı #24 Format : UTF-8 Codec ID/Info : UTF-8 Plain Altyazı Language : French Altyazı #25 Format : UTF-8 Codec ID/Info : UTF-8 Plain Altyazı Language : Galician Altyazı #26 Format : UTF-8 Codec ID/Info : UTF-8 Plain Altyazı Language : Hebrew Altyazı #27 Format : UTF-8 Codec ID/Info : UTF-8 Plain Altyazı Language : Croatian Altyazı #28 Format : UTF-8 Codec ID/Info : UTF-8 Plain Altyazı Language : Hungarian Altyazı #29 Format : UTF-8 Codec ID/Info : UTF-8 Plain Altyazı Language : Hungarian Altyazı #30 Format : UTF-8 Codec ID/Info : UTF-8 Plain Altyazı Language : Hungarian Altyazı #31 Format : UTF-8 Codec ID/Info : UTF-8 Plain Altyazı Language : Indonesian Altyazı #32 Format : UTF-8 Codec ID/Info : UTF-8 Plain Altyazı Language : Indonesian Altyazı #33 Format : UTF-8 Codec ID/Info : UTF-8 Plain Altyazı Language : Italian Altyazı #34 Format : UTF-8 Codec ID/Info : UTF-8 Plain Altyazı Language : Italian Altyazı #35 Format : UTF-8 Codec ID/Info : UTF-8 Plain Altyazı Language : Italian Altyazı #36 Format : UTF-8 Codec ID/Info : UTF-8 Plain Altyazı Language : Japanese Altyazı #37 Format : UTF-8 Codec ID/Info : UTF-8 Plain Altyazı Language : Japanese Altyazı #38 Format : UTF-8 Codec ID/Info : UTF-8 Plain Altyazı Language : Japanese Altyazı #39 Format : UTF-8 Codec ID/Info : UTF-8 Plain Altyazı Language : Korean Altyazı #40 Format : UTF-8 Codec ID/Info : UTF-8 Plain Altyazı Language : Malay Altyazı #41 Format : UTF-8 Codec ID/Info : UTF-8 Plain Altyazı Language : Norwegian Bokmal Altyazı #42 Format : UTF-8 Codec ID/Info : UTF-8 Plain Altyazı Language : Dutch Altyazı #43 Format : UTF-8 Codec ID/Info : UTF-8 Plain Altyazı Language : Polish Altyazı #44 Format : UTF-8 Codec ID/Info : UTF-8 Plain Altyazı Language : Polish Altyazı #45 Format : UTF-8 Codec ID/Info : UTF-8 Plain Altyazı Language : Polish Altyazı #46 Format : UTF-8 Codec ID/Info : UTF-8 Plain Altyazı Language : Portuguese Altyazı #47 Format : UTF-8 Codec ID/Info : UTF-8 Plain Altyazı Language : Portuguese Altyazı #48 Format : UTF-8 Codec ID/Info : UTF-8 Plain Altyazı Language : Portuguese Altyazı #49 Format : UTF-8 Codec ID/Info : UTF-8 Plain Altyazı Language : Portuguese Altyazı #50 Format : UTF-8 Codec ID/Info : UTF-8 Plain Altyazı Language : Romanian Altyazı #51 Format : UTF-8 Codec ID/Info : UTF-8 Plain Altyazı Language : Romanian Altyazı #52 Format : UTF-8 Codec ID/Info : UTF-8 Plain Altyazı Language : Russian Altyazı #53 Format : UTF-8 Codec ID/Info : UTF-8 Plain Altyazı Language : Swedish Altyazı #54 Format : UTF-8 Codec ID/Info : UTF-8 Plain Altyazı Language : Thai Altyazı #55 Format : UTF-8 Codec ID/Info : UTF-8 Plain Altyazı Language : Thai Altyazı #56 Format : UTF-8 Codec ID/Info : UTF-8 Plain Altyazı Language : Thai Altyazı #57 Format : UTF-8 Codec ID/Info : UTF-8 Plain Altyazı Language : Türkçe Altyazı #58 Format : UTF-8 Codec ID/Info : UTF-8 Plain Altyazı Language : Türkçe Altyazı #59 Format : UTF-8 Codec ID/Info : UTF-8 Plain Altyazı Language : Türkçe Altyazı #60 Format : UTF-8 Codec ID/Info : UTF-8 Plain Altyazı Language : Ukrainian Altyazı #61 Format : UTF-8 Codec ID/Info : UTF-8 Plain Altyazı Language : Ukrainian Altyazı #62 Format : UTF-8 Codec ID/Info : UTF-8 Plain Altyazı Language : Vietnamese Altyazı #63 Format : UTF-8 Codec ID/Info : UTF-8 Plain Altyazı Language : Vietnamese Altyazı #64 Format : UTF-8 Codec ID/Info : UTF-8 Plain Altyazı Language : Chinese Altyazı #65 Format : UTF-8 Codec ID/Info : UTF-8 Plain Altyazı Language : Chinese İNDİRME LİNKİ https://iniyor.net/tb/a656bdf5f7263b31be5e05e83ac107f2/Damsel.2024.GERMAN.DL.HDR.2160p.WEB.H265-FWB.mkv.html SuperUp turbobit.net, gofile.io, doodrive.com, megaup.net, send.cm, 1fichier.com, mixdrop.ag, pixeldrain.com, streamtape.com, rapidgator.net
    0 Cevap | 6 Görüntüleme
  • SuperUp nickli üyeye ait kullanıcı resmi (Avatar)
    6 Saat önce
    Damsel (2024) 2160p WEB-DL H265 HDR Türkçe Altyazılı IMDB LİNKİ Tür: Fantastik, Aksiyon, Macera Princess Elodie, görev bilinciyle yakışıklı bir prensle evlenmeyi kabul eder, ancak kraliyet ailesinin onu kadim bir borcu ödemek için kurban olarak seçtiğini öğrenir. Ateş püskürten bir ejderhayla birlikte bir mağaraya atılan genç prenses hayatta kalmak için zekasına ve iradesine güvenmek zorundadır. Oyuncular: Millie Bobby Brown, Ray Winstone, Angela Bassett, Brooke Carter, Nick Robinson, Robin Wright, Milo Twomey, Nicole Joseph, Patrice Naiambana, Ulli Ackermann FİLM TANITIM LİNKİ FİLMDEN KARELER General Format : Matroska File size : 15.2 GiB Duration : 1 h 49 min Overall bit rate : 19.9 Mb/s Frame rate : 24.000 FPS Video Format : HEVC Format/Info : High Efficiency Video Coding Duration : 1 h 49 min Width : 3 840 pixels Height : 2 160 pixels Frame rate : 24.000 FPS Stream size : 13.7 GiB (90%) Ses 1 Format : E-AC-3 JOC Duration : 1 h 49 min Channel(s) : 6 channels Frame rate : 31.250 FPS (1536 SPF) Stream size : 602 MiB (4%) Language : German Ses 2 Format : E-AC-3 JOC Duration : 1 h 49 min Channel(s) : 6 channels Frame rate : 31.250 FPS (1536 SPF) Stream size : 602 MiB (4%) Language : English Altyazı #1 Format : UTF-8 Codec ID/Info : UTF-8 Plain Altyazı Language : German Altyazı #2 Format : UTF-8 Codec ID/Info : UTF-8 Plain Altyazı Language : German Altyazı #3 Format : UTF-8 Codec ID/Info : UTF-8 Plain Altyazı Language : German Altyazı #4 Format : UTF-8 Codec ID/Info : UTF-8 Plain Altyazı Language : German Altyazı #5 Format : UTF-8 Codec ID/Info : UTF-8 Plain Altyazı Language : English Altyazı #6 Format : UTF-8 Codec ID/Info : UTF-8 Plain Altyazı Language : Arabic Altyazı #7 Format : UTF-8 Codec ID/Info : UTF-8 Plain Altyazı Language : Catalan Altyazı #8 Format : UTF-8 Codec ID/Info : UTF-8 Plain Altyazı Language : Czech Altyazı #9 Format : UTF-8 Codec ID/Info : UTF-8 Plain Altyazı Language : Czech Altyazı #10 Format : UTF-8 Codec ID/Info : UTF-8 Plain Altyazı Language : Danish Altyazı #11 Format : UTF-8 Codec ID/Info : UTF-8 Plain Altyazı Language : Greek Altyazı #12 Format : UTF-8 Codec ID/Info : UTF-8 Plain Altyazı Language : Spanish Altyazı #13 Format : UTF-8 Codec ID/Info : UTF-8 Plain Altyazı Language : Spanish Altyazı #14 Format : UTF-8 Codec ID/Info : UTF-8 Plain Altyazı Language : Spanish Altyazı #15 Format : UTF-8 Codec ID/Info : UTF-8 Plain Altyazı Language : Spanish Altyazı #16 Format : UTF-8 Codec ID/Info : UTF-8 Plain Altyazı Language : Spanish Altyazı #17 Format : UTF-8 Codec ID/Info : UTF-8 Plain Altyazı Language : Spanish Altyazı #18 Format : UTF-8 Codec ID/Info : UTF-8 Plain Altyazı Language : Basque Altyazı #19 Format : UTF-8 Codec ID/Info : UTF-8 Plain Altyazı Language : Finnish Altyazı #20 Format : UTF-8 Codec ID/Info : UTF-8 Plain Altyazı Language : Filipino Altyazı #21 Format : UTF-8 Codec ID/Info : UTF-8 Plain Altyazı Language : Filipino Altyazı #22 Format : UTF-8 Codec ID/Info : UTF-8 Plain Altyazı Language : French Altyazı #23 Format : UTF-8 Codec ID/Info : UTF-8 Plain Altyazı Language : French Altyazı #24 Format : UTF-8 Codec ID/Info : UTF-8 Plain Altyazı Language : French Altyazı #25 Format : UTF-8 Codec ID/Info : UTF-8 Plain Altyazı Language : Galician Altyazı #26 Format : UTF-8 Codec ID/Info : UTF-8 Plain Altyazı Language : Hebrew Altyazı #27 Format : UTF-8 Codec ID/Info : UTF-8 Plain Altyazı Language : Croatian Altyazı #28 Format : UTF-8 Codec ID/Info : UTF-8 Plain Altyazı Language : Hungarian Altyazı #29 Format : UTF-8 Codec ID/Info : UTF-8 Plain Altyazı Language : Hungarian Altyazı #30 Format : UTF-8 Codec ID/Info : UTF-8 Plain Altyazı Language : Hungarian Altyazı #31 Format : UTF-8 Codec ID/Info : UTF-8 Plain Altyazı Language : Indonesian Altyazı #32 Format : UTF-8 Codec ID/Info : UTF-8 Plain Altyazı Language : Indonesian Altyazı #33 Format : UTF-8 Codec ID/Info : UTF-8 Plain Altyazı Language : Italian Altyazı #34 Format : UTF-8 Codec ID/Info : UTF-8 Plain Altyazı Language : Italian Altyazı #35 Format : UTF-8 Codec ID/Info : UTF-8 Plain Altyazı Language : Italian Altyazı #36 Format : UTF-8 Codec ID/Info : UTF-8 Plain Altyazı Language : Japanese Altyazı #37 Format : UTF-8 Codec ID/Info : UTF-8 Plain Altyazı Language : Japanese Altyazı #38 Format : UTF-8 Codec ID/Info : UTF-8 Plain Altyazı Language : Japanese Altyazı #39 Format : UTF-8 Codec ID/Info : UTF-8 Plain Altyazı Language : Korean Altyazı #40 Format : UTF-8 Codec ID/Info : UTF-8 Plain Altyazı Language : Malay Altyazı #41 Format : UTF-8 Codec ID/Info : UTF-8 Plain Altyazı Language : Norwegian Bokmal Altyazı #42 Format : UTF-8 Codec ID/Info : UTF-8 Plain Altyazı Language : Dutch Altyazı #43 Format : UTF-8 Codec ID/Info : UTF-8 Plain Altyazı Language : Polish Altyazı #44 Format : UTF-8 Codec ID/Info : UTF-8 Plain Altyazı Language : Polish Altyazı #45 Format : UTF-8 Codec ID/Info : UTF-8 Plain Altyazı Language : Polish Altyazı #46 Format : UTF-8 Codec ID/Info : UTF-8 Plain Altyazı Language : Portuguese Altyazı #47 Format : UTF-8 Codec ID/Info : UTF-8 Plain Altyazı Language : Portuguese Altyazı #48 Format : UTF-8 Codec ID/Info : UTF-8 Plain Altyazı Language : Portuguese Altyazı #49 Format : UTF-8 Codec ID/Info : UTF-8 Plain Altyazı Language : Portuguese Altyazı #50 Format : UTF-8 Codec ID/Info : UTF-8 Plain Altyazı Language : Romanian Altyazı #51 Format : UTF-8 Codec ID/Info : UTF-8 Plain Altyazı Language : Romanian Altyazı #52 Format : UTF-8 Codec ID/Info : UTF-8 Plain Altyazı Language : Russian Altyazı #53 Format : UTF-8 Codec ID/Info : UTF-8 Plain Altyazı Language : Swedish Altyazı #54 Format : UTF-8 Codec ID/Info : UTF-8 Plain Altyazı Language : Thai Altyazı #55 Format : UTF-8 Codec ID/Info : UTF-8 Plain Altyazı Language : Thai Altyazı #56 Format : UTF-8 Codec ID/Info : UTF-8 Plain Altyazı Language : Thai Altyazı #57 Format : UTF-8 Codec ID/Info : UTF-8 Plain Altyazı Language : Türkçe Altyazı #58 Format : UTF-8 Codec ID/Info : UTF-8 Plain Altyazı Language : Türkçe Altyazı #59 Format : UTF-8 Codec ID/Info : UTF-8 Plain Altyazı Language : Türkçe Altyazı #60 Format : UTF-8 Codec ID/Info : UTF-8 Plain Altyazı Language : Ukrainian Altyazı #61 Format : UTF-8 Codec ID/Info : UTF-8 Plain Altyazı Language : Ukrainian Altyazı #62 Format : UTF-8 Codec ID/Info : UTF-8 Plain Altyazı Language : Vietnamese Altyazı #63 Format : UTF-8 Codec ID/Info : UTF-8 Plain Altyazı Language : Vietnamese Altyazı #64 Format : UTF-8 Codec ID/Info : UTF-8 Plain Altyazı Language : Chinese Altyazı #65 Format : UTF-8 Codec ID/Info : UTF-8 Plain Altyazı Language : Chinese İNDİRME LİNKİ https://iniyor.net/tb/a656bdf5f7263b31be5e05e83ac107f2/Damsel.2024.GERMAN.DL.HDR.2160p.WEB.H265-FWB.mkv.html SuperUp turbobit.net, gofile.io, doodrive.com, megaup.net, send.cm, 1fichier.com, mixdrop.ag, pixeldrain.com, streamtape.com, rapidgator.net
    0 Cevap | 3 Görüntüleme
  • SuperUp nickli üyeye ait kullanıcı resmi (Avatar)
    6 Saat önce
    İnce Kırmızı Hat - The Thin Red Line (1998) 720p TR - TSRG IMDB LİNKİ Tür: Dram, Tarih, Savaş İkinci Dünya Savaşı sırasında Guadalcanal da savaşan bir grup Amerikalı erkeğin değişmelerinin, acı çekmelerinin ve kendileriyle ilgili önemli keşifler yapmalarının öyküsü. Film Pasifik adalarında Japonların ilerlemelerini durduracak olan, savaşta anahtar görevi görmüş çatışmalardan birini arkaplanına almış. Ama öykü, bunun ötesinde, hayatta kalmak için savaşan, korkunç stres altındaki insanların aralarında gelişen güçlü bağların arasında dolaşıyor. Oyuncular: Jim Caviezel, Ben Chaplin, Dash Mihok, Woody Harrelson, Nick Nolte, Sean Penn, John Cusack, Adrien Brody, John Travolta, Jared Leto FİLM TANITIM LİNKİ FİLMDEN KARELER General Format : Matroska File size : 2.40 GiB Duration : 2 h 50 min Overall bit rate mode : Constant Overall bit rate : 2 008 kb/s Frame rate : 23.976 FPS Video Format : AVC Format/Info : Advanced Video Codec Duration : 2 h 50 min Width : 1 280 pixels Height : 550 pixels Frame rate : 23.976 (24000/1001) FPS Stream size : 2.09 GiB (87%) Audio Format : AC-3 Format/Info : Audio Coding 3 Duration : 2 h 50 min Channel(s) : 2 channels Frame rate : 31.250 FPS (1536 SPF) Stream size : 313 MiB (13%) İNDİRME LİNKİ https://iniyor.net/tb/98f1e6b74ecbff11905417e2639bab95/%C4%B0nce%20K%C4%B1rm%C4%B1z%C4%B1%20Hat-The%20Thin%20Red%20Line%201998%20TR%20720p%20BrRipTurkSeed.mkv.html SuperUp turbobit.net, gofile.io, doodrive.com, megaup.net, send.cm, 1fichier.com, mixdrop.ag, pixeldrain.com, streamtape.com, rapidgator.net
    0 Cevap | 1 Görüntüleme
  • SuperUp nickli üyeye ait kullanıcı resmi (Avatar)
    6 Saat önce
    İnce Kırmızı Hat - The Thin Red Line (1998) 720p TR - TSRG IMDB LİNKİ Tür: Dram, Tarih, Savaş İkinci Dünya Savaşı sırasında Guadalcanal da savaşan bir grup Amerikalı erkeğin değişmelerinin, acı çekmelerinin ve kendileriyle ilgili önemli keşifler yapmalarının öyküsü. Film Pasifik adalarında Japonların ilerlemelerini durduracak olan, savaşta anahtar görevi görmüş çatışmalardan birini arkaplanına almış. Ama öykü, bunun ötesinde, hayatta kalmak için savaşan, korkunç stres altındaki insanların aralarında gelişen güçlü bağların arasında dolaşıyor. Oyuncular: Jim Caviezel, Ben Chaplin, Dash Mihok, Woody Harrelson, Nick Nolte, Sean Penn, John Cusack, Adrien Brody, John Travolta, Jared Leto FİLM TANITIM LİNKİ FİLMDEN KARELER General Format : Matroska File size : 2.40 GiB Duration : 2 h 50 min Overall bit rate mode : Constant Overall bit rate : 2 008 kb/s Frame rate : 23.976 FPS Video Format : AVC Format/Info : Advanced Video Codec Duration : 2 h 50 min Width : 1 280 pixels Height : 550 pixels Frame rate : 23.976 (24000/1001) FPS Stream size : 2.09 GiB (87%) Audio Format : AC-3 Format/Info : Audio Coding 3 Duration : 2 h 50 min Channel(s) : 2 channels Frame rate : 31.250 FPS (1536 SPF) Stream size : 313 MiB (13%) İNDİRME LİNKİ https://iniyor.net/tb/98f1e6b74ecbff11905417e2639bab95/%C4%B0nce%20K%C4%B1rm%C4%B1z%C4%B1%20Hat-The%20Thin%20Red%20Line%201998%20TR%20720p%20BrRipTurkSeed.mkv.html SuperUp turbobit.net, gofile.io, doodrive.com, megaup.net, send.cm, 1fichier.com, mixdrop.ag, pixeldrain.com, streamtape.com, rapidgator.net
    0 Cevap | 2 Görüntüleme
  • SuperUp nickli üyeye ait kullanıcı resmi (Avatar)
    6 Saat önce
    Vefa - Vefa Borcu (2009) 720p WEB-DL - SuperUp IMDB LİNKİ anne, baba ve kız kardeşiyle mutlu bir hayat yaşayan Azer, nişanlanmak için artık gün sayar. Sevdiği kız Bahar'la evlenmek için çalışmaktan yorulmayan, düğün için para kazanmaya çalışan Azer için beklediği günler hiç de kolay gelmeyecektir. FİLMDEN KARELER General Format : Matroska File size : 622 MiB Duration : 59 min 34 s Overall bit rate : 1 461 kb/s Frame rate : 25.000 FPS Video Format : AVC Format/Info : Advanced Video Codec Duration : 59 min 34 s Width : 1 280 pixels Height : 720 pixels Frame rate : 25.000 FPS Stream size : 567 MiB (91%) Audio Format : AAC LC Format/Info : Advanced Audio Codec Low Complexity Duration : 59 min 34 s Channel(s) : 2 channels Frame rate : 43.066 FPS (1024 SPF) Stream size : 54.5 MiB (9%) Language : English İNDİRME LİNKİ https://iniyor.net/tb/cedb31506c4ab6f8bb341a66ae13f0d5/Vefa%20720p%20WEB-DL%20-%20SuperUp.mkv.html SuperUp turbobit.net, gofile.io, doodrive.com, megaup.net, send.cm, 1fichier.com, mixdrop.ag, pixeldrain.com, streamtape.com, rapidgator.net
    0 Cevap | 1 Görüntüleme
  • SuperUp nickli üyeye ait kullanıcı resmi (Avatar)
    6 Saat önce
    Vefa - Vefa Borcu (2009) 720p WEB-DL - SuperUp IMDB LİNKİ anne, baba ve kız kardeşiyle mutlu bir hayat yaşayan Azer, nişanlanmak için artık gün sayar. Sevdiği kız Bahar'la evlenmek için çalışmaktan yorulmayan, düğün için para kazanmaya çalışan Azer için beklediği günler hiç de kolay gelmeyecektir. FİLMDEN KARELER General Format : Matroska File size : 622 MiB Duration : 59 min 34 s Overall bit rate : 1 461 kb/s Frame rate : 25.000 FPS Video Format : AVC Format/Info : Advanced Video Codec Duration : 59 min 34 s Width : 1 280 pixels Height : 720 pixels Frame rate : 25.000 FPS Stream size : 567 MiB (91%) Audio Format : AAC LC Format/Info : Advanced Audio Codec Low Complexity Duration : 59 min 34 s Channel(s) : 2 channels Frame rate : 43.066 FPS (1024 SPF) Stream size : 54.5 MiB (9%) Language : English İNDİRME LİNKİ https://iniyor.net/tb/cedb31506c4ab6f8bb341a66ae13f0d5/Vefa%20720p%20WEB-DL%20-%20SuperUp.mkv.html SuperUp turbobit.net, gofile.io, doodrive.com, megaup.net, send.cm, 1fichier.com, mixdrop.ag, pixeldrain.com, streamtape.com, rapidgator.net
    0 Cevap | 3 Görüntüleme
  • SuperUp nickli üyeye ait kullanıcı resmi (Avatar)
    6 Saat önce
    Aranıyor - Wanted (2008) m1080p TR BRRip x264 IMDB LİNKİ Tür: Aksiyon, Gerilim, Suç Wesley hayattan nefret eden zayıf ruhlu ve tembel bir genç adamdır. Hayattan nefret etmek için iyi ve güçlü gerekçeleri de vardır, çünkü yaptığı her işte başarısızdır. Eziktir, kaybedendir, itilir, kakılır, hayatta başarısızlığın yaşayan örneğidir. Çalıştığı işyerinde patronu tarafından azarlanır. Evindeki durum da farksızdır. Wes sürekli kaybettiği ve aşağılandığı için çareyi yüksek dozda panik atak ilaçları kullanmakta bulmuştur.Fox adlı bir kadının hayatına girmesiyle birlikte Wes'in eski yaşantısı sona erecektir. Fox market alışverişi esnasında Wesley ile karşılaşır ve onu yanına alır. O andan itibaren Wes'in uzun süredir kayıp olduğu için artık unutulan babasının da Kardeşlik adlı bir gizli örgüt için çalışırken öldürüldüğü ortaya çıkar. Yüzyıllık bir geçmişi olan ve eğitimli suikastçilerden kurulu Kardeşlik'nin işlevi, kaderin önüne geçilemez emirlerini yerine getirmektir. Bu örgütün tek bir ilkesi vardır: Binlerce insanı kurtarmak için bir kişiyi öldüreceksin! Oyuncular: James McAvoy, Angelina Jolie, Morgan Freeman, Terence Stamp, Thomas Kretschmann, Common, Kristen Hager, Marc Warren, Dato Bakhtadze FİLM TANITIM LİNKİ FİLMDEN KARELER General Format : Matroska File size : 1.26 GiB Duration : 1 h 49 min Overall bit rate : 1 635 kb/s Frame rate : 23.976 FPS Video Format : AVC Format/Info : Advanced Video Codec Duration : 1 h 49 min Width : 1 920 pixels Height : 816 pixels Frame rate : 23.976 (24000/1001) FPS Stream size : 1.11 GiB (88%) Audio Format : AC-3 Format/Info : Audio Coding 3 Duration : 1 h 49 min Channel(s) : 6 channels Frame rate : 28.711 FPS (1536 SPF) Stream size : 151 MiB (12%) İNDİRME LİNKİ https://iniyor.net/tb/8f0430bc185a3a494e037da7806342be/Aran%C4%B1yor%20-%20Wanted%202008%20m1080p%20TR%20BRRip%20x264%20AC.mkv.html SuperUp turbobit.net, gofile.io, doodrive.com, megaup.net, send.cm, 1fichier.com, mixdrop.ag, pixeldrain.com, streamtape.com, rapidgator.net
    0 Cevap | 2 Görüntüleme
  • SuperUp nickli üyeye ait kullanıcı resmi (Avatar)
    6 Saat önce
    Gecenin Sıcağında - In the Heat of the Night (1967) 720p TR BRRip - TSRG IMDB LİNKİ Tür: Suç, Dram, Gizem, Gerilim Bill Gillespie, Güney Amerikada küçük bir kasabada polis şefidir. Sonradan bölgenin şerifi konumuna gelir. Bill, suç olaylarını çözmeye ve suçluları yakalamaya çalıştıkça bir takım hileli küçük-kasaba politiklerini de kullanmak zorundadır. Bu süreçte dedektif Virgil Tibbs ve polis yüzbaşısı Bubba Skinner'dan destek almaktadır. Irk meselesine dair gerilim bölgede artmaktadır. Film Rod Steiger'a En İyi Erkek Oyuncu dalında Oscar getirmiştir. Ayrıca film 1967'de yılın en iyi uyarlama senaryo, en iyi kurgu ve en iyi ses dallarında ödül sahibi olmuştur. Oyuncular: Sidney Poitier, Rod Steiger, Warren Oates, Peter Whitney, Lee Grant, Anthony James, William Schallert, Scott Wilson, Larry Gates, James Patterson FİLM TANITIM LİNKİ FİLMDEN KARELER General Format : Matroska File size : 2.02 GiB Duration : 1 h 50 min Overall bit rate : 2 628 kb/s Frame rate : 23.976 FPS Video Format : AVC Format/Info : Advanced Video Codec Duration : 1 h 50 min Width : 1 280 pixels Height : 694 pixels Frame rate : 23.976 (24000/1001) FPS Stream size : 1.92 GiB (95%) Audio Format : AAC LC Format/Info : Advanced Audio Codec Low Complexity Duration : 1 h 50 min Channel(s) : 2 channels Frame rate : 43.066 FPS (1024 SPF) Stream size : 101 MiB (5%) Language : Türkçe İNDİRME LİNKİ https://iniyor.net/tb/74beea891fb5c2e5ba024d6c1deba668/Gecenin%20S%C4%B1ca%C4%9F%C4%B1nda-In%20THe%20Heat%20Of%20the%20Night%201967%20TR%20720p%20BRripTSRG.mkv.html SuperUp turbobit.net, gofile.io, doodrive.com, megaup.net, send.cm, 1fichier.com, mixdrop.ag, pixeldrain.com, streamtape.com, rapidgator.net
    0 Cevap | 1 Görüntüleme
  • SuperUp nickli üyeye ait kullanıcı resmi (Avatar)
    6 Saat önce
    Aranıyor - Wanted (2008) m1080p TR BRRip x264 IMDB LİNKİ Tür: Aksiyon, Gerilim, Suç Wesley hayattan nefret eden zayıf ruhlu ve tembel bir genç adamdır. Hayattan nefret etmek için iyi ve güçlü gerekçeleri de vardır, çünkü yaptığı her işte başarısızdır. Eziktir, kaybedendir, itilir, kakılır, hayatta başarısızlığın yaşayan örneğidir. Çalıştığı işyerinde patronu tarafından azarlanır. Evindeki durum da farksızdır. Wes sürekli kaybettiği ve aşağılandığı için çareyi yüksek dozda panik atak ilaçları kullanmakta bulmuştur.Fox adlı bir kadının hayatına girmesiyle birlikte Wes'in eski yaşantısı sona erecektir. Fox market alışverişi esnasında Wesley ile karşılaşır ve onu yanına alır. O andan itibaren Wes'in uzun süredir kayıp olduğu için artık unutulan babasının da Kardeşlik adlı bir gizli örgüt için çalışırken öldürüldüğü ortaya çıkar. Yüzyıllık bir geçmişi olan ve eğitimli suikastçilerden kurulu Kardeşlik'nin işlevi, kaderin önüne geçilemez emirlerini yerine getirmektir. Bu örgütün tek bir ilkesi vardır: Binlerce insanı kurtarmak için bir kişiyi öldüreceksin! Oyuncular: James McAvoy, Angelina Jolie, Morgan Freeman, Terence Stamp, Thomas Kretschmann, Common, Kristen Hager, Marc Warren, Dato Bakhtadze FİLM TANITIM LİNKİ FİLMDEN KARELER General Format : Matroska File size : 1.26 GiB Duration : 1 h 49 min Overall bit rate : 1 635 kb/s Frame rate : 23.976 FPS Video Format : AVC Format/Info : Advanced Video Codec Duration : 1 h 49 min Width : 1 920 pixels Height : 816 pixels Frame rate : 23.976 (24000/1001) FPS Stream size : 1.11 GiB (88%) Audio Format : AC-3 Format/Info : Audio Coding 3 Duration : 1 h 49 min Channel(s) : 6 channels Frame rate : 28.711 FPS (1536 SPF) Stream size : 151 MiB (12%) İNDİRME LİNKİ https://iniyor.net/tb/8f0430bc185a3a494e037da7806342be/Aran%C4%B1yor%20-%20Wanted%202008%20m1080p%20TR%20BRRip%20x264%20AC.mkv.html SuperUp turbobit.net, gofile.io, doodrive.com, megaup.net, send.cm, 1fichier.com, mixdrop.ag, pixeldrain.com, streamtape.com, rapidgator.net
    0 Cevap | 2 Görüntüleme
Daha Fazla Etkinlik
Cloudrip Hakkinda

Temel Bilgiler

İstatistik


Toplam konu
Toplam konu
3 (0.00%)
Günlük konu
0.04
Mesaj adeti
Mesaj adeti
36 (0.03%)
Günlük Ortalama Mesajlar
0.48
Son Mesaj
The Fabric of the Cosmos COMPLETE S01 720p 1 hafta önce
Toplam teşekkür
Toplam teşekkür
10
Genel Bilgiler
Son Aktivitesi
9 Saat önce
Üyelik tarihi
02.Mayıs.2024
Tavsiye Puanı
0

1 Arkadaşım

  1. SuperUp SuperUp isimli Üye şuanda  online konumundadır

    Super Moderator

    SuperUp
Arkadaşlar gösterme 1 to 1 of 1
1 2 3 4 5 6 7 8 9 10 11 12 13 14 15 16 17 18 19 20 21 22 23 24 25 26 27 28 29 30 31 32 33 34 35 36 37 38 39 40 41 42 43 44 45 46 47 48 49 50 51 52 53 54 55 56 57 58 59 60 61 62 63 64 65 66 67 68 69 70 71 72 73 74 75 76 77 78 79 80 81 82 83 84 85 86 87 88 89 90 91 92 93 94 95 96 97 98 99 100 101 102 103 104 105 106 107 108 109 110 111 112 113 114 115 116 117 118 119 120 121 122 123 124 125 126 127 128 129 130 131 132 133 134 135 136 137 138 139 140 141 142 143 144 145 146 147 148 149 150 151 152 153 154 155 156 157 158 159 160 161 162 163 164 165 166 167 168 169 170 171 172 173 174 175 176 177 178 179 180 181 182 183 184 185 186 187 188 189 190 191 192 193 194 195 196 197 198 199