• SuperUp nickli üyeye ait kullanıcı resmi (Avatar)
    3 Saat önce
    Kıyamet Günü - The Impossible - Lo imposible (2012) 1080p DUAL NF WEB-DL H264 - SuperUp IMDB LİNKİ Tür: Macera, Dram, Gerilim Maria ve Henry 3 çocuklarıyla birlikte kış tatillerini geçirmek için Tayland'a giderler. Bu tropik cennete birkaç gün keyifli vakit geçirmek isteyen aile, 25 Aralık gecesi düzenlenen Christmas partisine gider ve bolca eğlenirler. Ertesi sabah havuz keyfi yaptıkları sırada korkunç bir gürültüyle ortalık sarsılmaya başlar. Maria ve Henry korku içinde dona kaldıklarında, otelin duvarları üzerinden dev dalgalar da üzerlerine doğru hızla gelmektedir! Oyuncular: Naomi Watts, Ewan McGregor, Tom Holland, Samuel Joslin, Oaklee Pendergast, Marta Etura, Sönke Möhring, Geraldine Chaplin, Ploy Jindachote, Johan Sundberg, Jan Roland Sundberg, Tor Klathaley, Douglas Johansson FİLM TANITIM LİNKİ FİLMDEN KARELER General Format : Matroska File size : 3.71 GiB Duration : 1 h 53 min Overall bit rate mode : Variable Overall bit rate : 4 668 kb/s Frame rate : 23.976 FPS Video Format : AVC Format/Info : Advanced Video Codec Duration : 1 h 53 min Width : 1 920 pixels Height : 1 080 pixels Frame rate : 23.976 (24000/1001) FPS Stream size : 2.69 GiB (73%) Ses 1 Format : E-AC-3 Duration : 1 h 53 min Channel(s) : 6 channels Frame rate : 31.250 FPS (1536 SPF) Stream size : 520 MiB (14%) Language : Türkçe Ses 2 Format : E-AC-3 Duration : 1 h 53 min Channel(s) : 6 channels Frame rate : 31.250 FPS (1536 SPF) Stream size : 520 MiB (14%) Language : English Altyazı #1 Format : UTF-8 Duration : 1 h 41 min Frame rate : 0.002 FPS Stream size : 411 Bytes (0%) Language : Türkçe Altyazı #2 Format : UTF-8 Duration : 1 h 39 min Frame rate : 0.172 FPS Stream size : 25.5 KiB (0%) Language : English Altyazı #3 Format : UTF-8 Duration : 1 h 41 min Frame rate : 0.139 FPS Stream size : 22.2 KiB (0%) Language : Türkçe İNDİRME LİNKİ SuperUp turbobit.net, gofile.io, doodrive.com, megaup.net, send.cm, 1fichier.com, mixdrop.ag, pixeldrain.com, streamtape.com, rapidgator.net
    0 Cevap | 6 Görüntüleme
  • SuperUp nickli üyeye ait kullanıcı resmi (Avatar)
    3 Saat önce
    Kıyamet Günü - The Impossible - Lo imposible (2012) 1080p DUAL NF WEB-DL H264 - SuperUp IMDB LİNKİ Tür: Macera, Dram, Gerilim Maria ve Henry 3 çocuklarıyla birlikte kış tatillerini geçirmek için Tayland'a giderler. Bu tropik cennete birkaç gün keyifli vakit geçirmek isteyen aile, 25 Aralık gecesi düzenlenen Christmas partisine gider ve bolca eğlenirler. Ertesi sabah havuz keyfi yaptıkları sırada korkunç bir gürültüyle ortalık sarsılmaya başlar. Maria ve Henry korku içinde dona kaldıklarında, otelin duvarları üzerinden dev dalgalar da üzerlerine doğru hızla gelmektedir! Oyuncular: Naomi Watts, Ewan McGregor, Tom Holland, Samuel Joslin, Oaklee Pendergast, Marta Etura, Sönke Möhring, Geraldine Chaplin, Ploy Jindachote, Johan Sundberg, Jan Roland Sundberg, Tor Klathaley, Douglas Johansson FİLM TANITIM LİNKİ FİLMDEN KARELER General Format : Matroska File size : 3.71 GiB Duration : 1 h 53 min Overall bit rate mode : Variable Overall bit rate : 4 668 kb/s Frame rate : 23.976 FPS Video Format : AVC Format/Info : Advanced Video Codec Duration : 1 h 53 min Width : 1 920 pixels Height : 1 080 pixels Frame rate : 23.976 (24000/1001) FPS Stream size : 2.69 GiB (73%) Ses 1 Format : E-AC-3 Duration : 1 h 53 min Channel(s) : 6 channels Frame rate : 31.250 FPS (1536 SPF) Stream size : 520 MiB (14%) Language : Türkçe Ses 2 Format : E-AC-3 Duration : 1 h 53 min Channel(s) : 6 channels Frame rate : 31.250 FPS (1536 SPF) Stream size : 520 MiB (14%) Language : English Altyazı #1 Format : UTF-8 Duration : 1 h 41 min Frame rate : 0.002 FPS Stream size : 411 Bytes (0%) Language : Türkçe Altyazı #2 Format : UTF-8 Duration : 1 h 39 min Frame rate : 0.172 FPS Stream size : 25.5 KiB (0%) Language : English Altyazı #3 Format : UTF-8 Duration : 1 h 41 min Frame rate : 0.139 FPS Stream size : 22.2 KiB (0%) Language : Türkçe İNDİRME LİNKİ SuperUp turbobit.net, gofile.io, doodrive.com, megaup.net, send.cm, 1fichier.com, mixdrop.ag, pixeldrain.com, streamtape.com, rapidgator.net
    0 Cevap | 24 Görüntüleme
  • SuperUp nickli üyeye ait kullanıcı resmi (Avatar)
    3 Saat önce
    Kan Sporu - Bloodsport (1988) 1080p Türkçe Altyazılı AMZN WEB-DL H264 - SuperUp IMDB LİNKİ Tür: Aksiyon, Gerilim Gerçek bir hikayeden yola çıkılarak çekilen Kan Sporunda Amerikalı Dövüşçü Frank Dux, Hong Kong'ta katıldığı Kumite turnuvasını kazanmak için ringe çıkmaktadır. Dux'un amacı bu turnuvayı kazanan ilk batılı olmaktır. Ona bu mücadelesinde, bir diğer amerikalı arkadaşı Ray Jackson ve gazeteci Janice Kent eşlik edecektir. Oyuncular: Bolo Yeung, Donald Gibb, Leah Ayres, Norman Burton, Forest Whitaker, Roy Chiao, Philip Chan, Paulo Tocha, Pierre Rafini, Kimo Lai Kwok Ki, Bill Yuen Ping Kuen, Joshua Schroder FİLM TANITIM LİNKİ FİLMDEN KARELER General Format : Matroska File size : 2.08 GiB Duration : 1 h 32 min Overall bit rate : 3 228 kb/s Frame rate : 23.976 FPS Video Format : AVC Format/Info : Advanced Video Codec Duration : 1 h 32 min Width : 1 920 pixels Height : 1 040 pixels Frame rate : 23.976 (24000/1001) FPS Stream size : 1.94 GiB (93%) Audio Format : E-AC-3 Duration : 1 h 32 min Channel(s) : 2 channels Frame rate : 31.250 FPS (1536 SPF) Stream size : 148 MiB (7%) Language : English Altyazı #1 Format : UTF-8 Duration : 1 h 26 min Frame rate : 0.117 FPS Stream size : 19.3 KiB (0%) Language : Türkçe Altyazı #2 Format : UTF-8 Duration : 1 h 28 min Frame rate : 0.004 FPS Stream size : 694 Bytes (0%) Language : English Altyazı #3 Format : UTF-8 Duration : 1 h 31 min Frame rate : 0.169 FPS Stream size : 25.3 KiB (0%) Language : English İNDİRME LİNKİ SuperUp turbobit.net, gofile.io, doodrive.com, megaup.net, send.cm, 1fichier.com, mixdrop.ag, pixeldrain.com, streamtape.com, rapidgator.net
    0 Cevap | 8 Görüntüleme
  • SuperUp nickli üyeye ait kullanıcı resmi (Avatar)
    3 Saat önce
    Kan Sporu - Bloodsport (1988) 1080p Türkçe Altyazılı AMZN WEB-DL H264 - SuperUp IMDB LİNKİ Tür: Aksiyon, Gerilim Gerçek bir hikayeden yola çıkılarak çekilen Kan Sporunda Amerikalı Dövüşçü Frank Dux, Hong Kong'ta katıldığı Kumite turnuvasını kazanmak için ringe çıkmaktadır. Dux'un amacı bu turnuvayı kazanan ilk batılı olmaktır. Ona bu mücadelesinde, bir diğer amerikalı arkadaşı Ray Jackson ve gazeteci Janice Kent eşlik edecektir. Oyuncular: Bolo Yeung, Donald Gibb, Leah Ayres, Norman Burton, Forest Whitaker, Roy Chiao, Philip Chan, Paulo Tocha, Pierre Rafini, Kimo Lai Kwok Ki, Bill Yuen Ping Kuen, Joshua Schroder FİLM TANITIM LİNKİ FİLMDEN KARELER General Format : Matroska File size : 2.08 GiB Duration : 1 h 32 min Overall bit rate : 3 228 kb/s Frame rate : 23.976 FPS Video Format : AVC Format/Info : Advanced Video Codec Duration : 1 h 32 min Width : 1 920 pixels Height : 1 040 pixels Frame rate : 23.976 (24000/1001) FPS Stream size : 1.94 GiB (93%) Audio Format : E-AC-3 Duration : 1 h 32 min Channel(s) : 2 channels Frame rate : 31.250 FPS (1536 SPF) Stream size : 148 MiB (7%) Language : English Altyazı #1 Format : UTF-8 Duration : 1 h 26 min Frame rate : 0.117 FPS Stream size : 19.3 KiB (0%) Language : Türkçe Altyazı #2 Format : UTF-8 Duration : 1 h 28 min Frame rate : 0.004 FPS Stream size : 694 Bytes (0%) Language : English Altyazı #3 Format : UTF-8 Duration : 1 h 31 min Frame rate : 0.169 FPS Stream size : 25.3 KiB (0%) Language : English İNDİRME LİNKİ SuperUp turbobit.net, gofile.io, doodrive.com, megaup.net, send.cm, 1fichier.com, mixdrop.ag, pixeldrain.com, streamtape.com, rapidgator.net
    2 Cevap | 31 Görüntüleme
  • SuperUp nickli üyeye ait kullanıcı resmi (Avatar)
    4 Saat önce
    The Kardashians S05 720p DUAL DSNP WEB-DL H264 - SuperUp YENİ!!! IMDB LİNKİ Dizi, Kardashian ailesinin hayatını mercek altına alıyor. Kris, Kourtney, Kim, Khloe, Kendall ve Kylie’nin hayatı hakkında bilinmeyenlerin gözler önüne serildiği dizide, aile üyelernin birbirleriyle olan ilişkileri, kariyerleri, hayatarında olup bitenler anlatılıyor. FİLMDEN KARELER General Format : Matroska File size : 1.45 GiB Duration : 51 min 26 s Overall bit rate mode : Variable Overall bit rate : 4 022 kb/s Frame rate : 23.976 FPS Video Format : AVC Format/Info : Advanced Video Codec Duration : 51 min 26 s Width : 1 280 pixels Height : 720 pixels Frame rate : 23.976 (24000/1001) FPS Stream size : 1.26 GiB (87%) Ses 1 Format : E-AC-3 Duration : 51 min 26 s Channel(s) : 6 channels Frame rate : 31.250 FPS (1536 SPF) Stream size : 94.2 MiB (6%) Language : Türkçe Ses 2 Format : E-AC-3 Duration : 51 min 26 s Channel(s) : 6 channels Frame rate : 31.250 FPS (1536 SPF) Stream size : 94.2 MiB (6%) Language : English Altyazı #1 Format : UTF-8 Duration : 50 min 58 s Frame rate : 0.027 FPS Stream size : 2.90 KiB (0%) Language : Türkçe Altyazı #2 Format : UTF-8 Duration : 51 min 10 s Frame rate : 0.362 FPS Stream size : 39.2 KiB (0%) Language : Türkçe Altyazı #3 Format : UTF-8 Duration : 51 min 15 s Frame rate : 0.373 FPS Stream size : 46.3 KiB (0%) Language : English BÖLÜM 001 BÖLÜM 002 BÖLÜM 003
    0 Cevap | 9 Görüntüleme
  • SuperUp nickli üyeye ait kullanıcı resmi (Avatar)
    4 Saat önce
    The Kardashians S05 720p DUAL DSNP WEB-DL H264 - SuperUp IMDB LİNKİ Dizi, Kardashian ailesinin hayatını mercek altına alıyor. Kris, Kourtney, Kim, Khloe, Kendall ve Kylie’nin hayatı hakkında bilinmeyenlerin gözler önüne serildiği dizide, aile üyelernin birbirleriyle olan ilişkileri, kariyerleri, hayatarında olup bitenler anlatılıyor. FİLMDEN KARELER General Format : Matroska File size : 1.45 GiB Duration : 51 min 26 s Overall bit rate mode : Variable Overall bit rate : 4 022 kb/s Frame rate : 23.976 FPS Video Format : AVC Format/Info : Advanced Video Codec Duration : 51 min 26 s Width : 1 280 pixels Height : 720 pixels Frame rate : 23.976 (24000/1001) FPS Stream size : 1.26 GiB (87%) Ses 1 Format : E-AC-3 Duration : 51 min 26 s Channel(s) : 6 channels Frame rate : 31.250 FPS (1536 SPF) Stream size : 94.2 MiB (6%) Language : Türkçe Ses 2 Format : E-AC-3 Duration : 51 min 26 s Channel(s) : 6 channels Frame rate : 31.250 FPS (1536 SPF) Stream size : 94.2 MiB (6%) Language : English Altyazı #1 Format : UTF-8 Duration : 50 min 58 s Frame rate : 0.027 FPS Stream size : 2.90 KiB (0%) Language : Türkçe Altyazı #2 Format : UTF-8 Duration : 51 min 10 s Frame rate : 0.362 FPS Stream size : 39.2 KiB (0%) Language : Türkçe Altyazı #3 Format : UTF-8 Duration : 51 min 15 s Frame rate : 0.373 FPS Stream size : 46.3 KiB (0%) Language : English BÖLÜM 001 BÖLÜM 002 BÖLÜM 003
    0 Cevap | 10 Görüntüleme
  • SuperUp nickli üyeye ait kullanıcı resmi (Avatar)
    4 Saat önce
    Tatlı Manolyalar - Sweet Magnolias S03 1080p DUAL NF WEB-DL H264 DDP5.1 - TURG IMDB LİNKİ Tür: Dram Amerika'nın güneyindeki Serenity adlı kasabada eski dostlar Maddie, Helen ve Dana Sue, ilişkileri, aileleri ve kariyerleriyle uğraşırken birbirlerine destek olur. FİLMDEN KARELER General Format : Matroska File size : 2.43 GiB Duration : 50 min 47 s Overall bit rate mode : Variable Overall bit rate : 6 850 kb/s Frame rate : 23.976 FPS Video Format : AVC Format/Info : Advanced Video Codec Duration : 50 min 47 s Width : 1 920 pixels Height : 1 080 pixels Frame rate : 23.976 (24000/1001) FPS Stream size : 1.70 GiB (70%) Ses 1 Format : E-AC-3 Duration : 50 min 47 s Channel(s) : 6 channels Frame rate : 31.250 FPS (1536 SPF) Stream size : 233 MiB (9%) Language : German Ses 2 Format : E-AC-3 JOC Duration : 50 min 47 s Channel(s) : 6 channels Frame rate : 31.250 FPS (1536 SPF) Stream size : 279 MiB (11%) Language : English Ses 3 Format : E-AC-3 Duration : 50 min 47 s Channel(s) : 6 channels Frame rate : 31.250 FPS (1536 SPF) Stream size : 233 MiB (9%) Language : Türkçe Altyazı #1 Format : UTF-8 Duration : 48 min 18 s Frame rate : 0.002 FPS Stream size : 140 Bytes (0%) Language : Türkçe Altyazı #2 Format : UTF-8 Duration : 48 min 18 s Frame rate : 0.249 FPS Stream size : 24.3 KiB (0%) Language : Türkçe Altyazı #3 Format : UTF-8 Duration : 48 min 21 s Frame rate : 0.002 FPS Stream size : 124 Bytes (0%) Language : German Altyazı #4 Format : UTF-8 Duration : 48 min 21 s Frame rate : 0.247 FPS Stream size : 24.1 KiB (0%) Language : German Altyazı #5 Format : UTF-8 Duration : 48 min 21 s Frame rate : 0.304 FPS Stream size : 29.8 KiB (0%) Language : English BÖLÜM 001 BÖLÜM 002 BÖLÜM 003 BÖLÜM 004 BÖLÜM 005 BÖLÜM 006 BÖLÜM 007 BÖLÜM 008 BÖLÜM 009 BÖLÜM 010
    0 Cevap | 6 Görüntüleme
  • SuperUp nickli üyeye ait kullanıcı resmi (Avatar)
    4 Saat önce
    Tatlı Manolyalar - Sweet Magnolias S03 1080p DUAL NF WEB-DL H264 DDP5.1 - TURG IMDB LİNKİ Tür: Dram Amerika'nın güneyindeki Serenity adlı kasabada eski dostlar Maddie, Helen ve Dana Sue, ilişkileri, aileleri ve kariyerleriyle uğraşırken birbirlerine destek olur. FİLMDEN KARELER General Format : Matroska File size : 2.43 GiB Duration : 50 min 47 s Overall bit rate mode : Variable Overall bit rate : 6 850 kb/s Frame rate : 23.976 FPS Video Format : AVC Format/Info : Advanced Video Codec Duration : 50 min 47 s Width : 1 920 pixels Height : 1 080 pixels Frame rate : 23.976 (24000/1001) FPS Stream size : 1.70 GiB (70%) Ses 1 Format : E-AC-3 Duration : 50 min 47 s Channel(s) : 6 channels Frame rate : 31.250 FPS (1536 SPF) Stream size : 233 MiB (9%) Language : German Ses 2 Format : E-AC-3 JOC Duration : 50 min 47 s Channel(s) : 6 channels Frame rate : 31.250 FPS (1536 SPF) Stream size : 279 MiB (11%) Language : English Ses 3 Format : E-AC-3 Duration : 50 min 47 s Channel(s) : 6 channels Frame rate : 31.250 FPS (1536 SPF) Stream size : 233 MiB (9%) Language : Türkçe Altyazı #1 Format : UTF-8 Duration : 48 min 18 s Frame rate : 0.002 FPS Stream size : 140 Bytes (0%) Language : Türkçe Altyazı #2 Format : UTF-8 Duration : 48 min 18 s Frame rate : 0.249 FPS Stream size : 24.3 KiB (0%) Language : Türkçe Altyazı #3 Format : UTF-8 Duration : 48 min 21 s Frame rate : 0.002 FPS Stream size : 124 Bytes (0%) Language : German Altyazı #4 Format : UTF-8 Duration : 48 min 21 s Frame rate : 0.247 FPS Stream size : 24.1 KiB (0%) Language : German Altyazı #5 Format : UTF-8 Duration : 48 min 21 s Frame rate : 0.304 FPS Stream size : 29.8 KiB (0%) Language : English BÖLÜM 001 BÖLÜM 002 BÖLÜM 003 BÖLÜM 004 BÖLÜM 005 BÖLÜM 006 BÖLÜM 007 BÖLÜM 008 BÖLÜM 009 BÖLÜM 010
    0 Cevap | 7 Görüntüleme
  • SuperUp nickli üyeye ait kullanıcı resmi (Avatar)
    4 Saat önce
    Kan Sporu - Bloodsport (1988) 1080p DUAL AMZN WEB-DL H264 IMDB LİNKİ Tür: Aksiyon, Gerilim Gerçek bir hikayeden yola çıkılarak çekilen Kan Sporunda Amerikalı Dövüşçü Frank Dux, Hong Kong'ta katıldığı Kumite turnuvasını kazanmak için ringe çıkmaktadır. Dux'un amacı bu turnuvayı kazanan ilk batılı olmaktır. Ona bu mücadelesinde, bir diğer amerikalı arkadaşı Ray Jackson ve gazeteci Janice Kent eşlik edecektir. Oyuncular: Bolo Yeung, Donald Gibb, Leah Ayres, Norman Burton, Forest Whitaker, Roy Chiao, Philip Chan, Paulo Tocha, Pierre Rafini, Kimo Lai Kwok Ki, Bill Yuen Ping Kuen, Joshua Schroder FİLM TANITIM LİNKİ FİLMDEN KARELER General Format : Matroska File size : 2.21 GiB Duration : 1 h 32 min Overall bit rate : 3 420 kb/s Frame rate : 23.976 FPS Video Format : AVC Format/Info : Advanced Video Codec Duration : 1 h 32 min Width : 1 920 pixels Height : 1 040 pixels Frame rate : 23.976 (24000/1001) FPS Stream size : 1.94 GiB (88%) Ses 1 Format : AC-3 Format/Info : Audio Coding 3 Duration : 1 h 31 min Channel(s) : 6 channels Frame rate : 28.711 FPS (1536 SPF) Stream size : 126 MiB (6%) Language : Türkçe Ses 2 Format : E-AC-3 Duration : 1 h 32 min Channel(s) : 2 channels Frame rate : 31.250 FPS (1536 SPF) Stream size : 148 MiB (7%) Language : English Altyazı #1 Format : UTF-8 Duration : 1 h 26 min Frame rate : 0.117 FPS Stream size : 19.3 KiB (0%) Language : Türkçe Altyazı #2 Format : UTF-8 Duration : 1 h 28 min Frame rate : 0.004 FPS Stream size : 694 Bytes (0%) Language : English Altyazı #3 Format : UTF-8 Duration : 1 h 31 min Frame rate : 0.169 FPS Stream size : 25.3 KiB (0%) Language : English İNDİRME LİNKİ (Türkçe ses Amazon değildir, farklı kaynaktan alınarak Amazon ripe eklenmiştir.) SuperUp turbobit.net, gofile.io, doodrive.com, megaup.net, send.cm, 1fichier.com, mixdrop.ag, pixeldrain.com, streamtape.com, rapidgator.net
    0 Cevap | 5 Görüntüleme
  • SuperUp nickli üyeye ait kullanıcı resmi (Avatar)
    4 Saat önce
    Kan Sporu - Bloodsport (1988) 1080p DUAL AMZN WEB-DL H264 IMDB LİNKİ Tür: Aksiyon, Gerilim Gerçek bir hikayeden yola çıkılarak çekilen Kan Sporunda Amerikalı Dövüşçü Frank Dux, Hong Kong'ta katıldığı Kumite turnuvasını kazanmak için ringe çıkmaktadır. Dux'un amacı bu turnuvayı kazanan ilk batılı olmaktır. Ona bu mücadelesinde, bir diğer amerikalı arkadaşı Ray Jackson ve gazeteci Janice Kent eşlik edecektir. Oyuncular: Bolo Yeung, Donald Gibb, Leah Ayres, Norman Burton, Forest Whitaker, Roy Chiao, Philip Chan, Paulo Tocha, Pierre Rafini, Kimo Lai Kwok Ki, Bill Yuen Ping Kuen, Joshua Schroder FİLM TANITIM LİNKİ FİLMDEN KARELER General Format : Matroska File size : 2.21 GiB Duration : 1 h 32 min Overall bit rate : 3 420 kb/s Frame rate : 23.976 FPS Video Format : AVC Format/Info : Advanced Video Codec Duration : 1 h 32 min Width : 1 920 pixels Height : 1 040 pixels Frame rate : 23.976 (24000/1001) FPS Stream size : 1.94 GiB (88%) Ses 1 Format : AC-3 Format/Info : Audio Coding 3 Duration : 1 h 31 min Channel(s) : 6 channels Frame rate : 28.711 FPS (1536 SPF) Stream size : 126 MiB (6%) Language : Türkçe Ses 2 Format : E-AC-3 Duration : 1 h 32 min Channel(s) : 2 channels Frame rate : 31.250 FPS (1536 SPF) Stream size : 148 MiB (7%) Language : English Altyazı #1 Format : UTF-8 Duration : 1 h 26 min Frame rate : 0.117 FPS Stream size : 19.3 KiB (0%) Language : Türkçe Altyazı #2 Format : UTF-8 Duration : 1 h 28 min Frame rate : 0.004 FPS Stream size : 694 Bytes (0%) Language : English Altyazı #3 Format : UTF-8 Duration : 1 h 31 min Frame rate : 0.169 FPS Stream size : 25.3 KiB (0%) Language : English İNDİRME LİNKİ (Türkçe ses Amazon değildir, farklı kaynaktan alınarak Amazon ripe eklenmiştir.) SuperUp turbobit.net, gofile.io, doodrive.com, megaup.net, send.cm, 1fichier.com, mixdrop.ag, pixeldrain.com, streamtape.com, rapidgator.net
    0 Cevap | 6 Görüntüleme
  • SuperUp nickli üyeye ait kullanıcı resmi (Avatar)
    5 Saat önce
    Sasquatch Sunset (2024) 1080p BluRay REMUX AVC DTS-HD MA 5.1 - TURG IMDB LİNKİ Tür: Fantastik, Komedi Sasquatch Sunset, eşsiz bir ailenin hayatının bir yılına odaklanıyor. Sasquatch ailesinin günlük yaşamı, unutulmaz bir ayrıntı ve titizlikle gözler önüne seriliyor. Oyuncular: Riley Keough, Jesse Eisenberg, Nathan Zellner, David Zellner, Nathan Zellner, Ari Aster, Riley Keough, David Zellner, Nathan Zellner, Jesse Eisenberg, David Zellner, FİLM TANITIM LİNKİ FİLMDEN KARELER General Format : Matroska File size : 21.4 GiB Duration : 1 h 28 min Overall bit rate mode : Variable Overall bit rate : 34.5 Mb/s Frame rate : 23.976 FPS Video Format : AVC Format/Info : Advanced Video Codec Duration : 1 h 28 min Width : 1 920 pixels Height : 1 080 pixels Frame rate : 23.976 (24000/1001) FPS Stream size : 17.3 GiB (81%) Language : Tatar Ses 1 Format : DTS XLL Commercial name : DTS-HD Master Audio Duration : 1 h 28 min Channel(s) : 6 channels Frame rate : 93.750 FPS (512 SPF) Stream size : 2.17 GiB (10%) Language : English Ses 2 Format : DTS XLL Commercial name : DTS-HD Master Audio Duration : 1 h 28 min Channel(s) : 2 channels Frame rate : 93.750 FPS (512 SPF) Stream size : 1.25 GiB (6%) Language : English Ses 3 Format : E-AC-3 Duration : 1 h 28 min Channel(s) : 6 channels Frame rate : 31.250 FPS (1536 SPF) Stream size : 405 MiB (2%) Language : English Ses 4 Format : AC-3 Format/Info : Audio Coding 3 Duration : 1 h 28 min Channel(s) : 6 channels Frame rate : 31.250 FPS (1536 SPF) Stream size : 284 MiB (1%) Language : English Altyazı #1 Format : PGS Duration : 1 h 27 min Frame rate : 0.232 FPS Stream size : 6.60 MiB (0%) Language : English Altyazı #2 Format : UTF-8 Duration : 1 h 27 min Frame rate : 0.116 FPS Stream size : 12.1 KiB (0%) Language : English İNDİRME LİNKİ TÜRKÇE ALTYAZI SAYFASI SuperUp turbobit.net, gofile.io, doodrive.com, megaup.net, send.cm, 1fichier.com, mixdrop.ag, pixeldrain.com, streamtape.com, rapidgator.net
    0 Cevap | 7 Görüntüleme
  • SuperUp nickli üyeye ait kullanıcı resmi (Avatar)
    5 Saat önce
    Sasquatch Sunset (2024) 1080p BluRay REMUX AVC DTS-HD MA 5.1 - TURG IMDB LİNKİ Tür: Fantastik, Komedi Sasquatch Sunset, eşsiz bir ailenin hayatının bir yılına odaklanıyor. Sasquatch ailesinin günlük yaşamı, unutulmaz bir ayrıntı ve titizlikle gözler önüne seriliyor. Oyuncular: Riley Keough, Jesse Eisenberg, Nathan Zellner, David Zellner, Nathan Zellner, Ari Aster, Riley Keough, David Zellner, Nathan Zellner, Jesse Eisenberg, David Zellner, FİLM TANITIM LİNKİ FİLMDEN KARELER General Format : Matroska File size : 21.4 GiB Duration : 1 h 28 min Overall bit rate mode : Variable Overall bit rate : 34.5 Mb/s Frame rate : 23.976 FPS Video Format : AVC Format/Info : Advanced Video Codec Duration : 1 h 28 min Width : 1 920 pixels Height : 1 080 pixels Frame rate : 23.976 (24000/1001) FPS Stream size : 17.3 GiB (81%) Language : Tatar Ses 1 Format : DTS XLL Commercial name : DTS-HD Master Audio Duration : 1 h 28 min Channel(s) : 6 channels Frame rate : 93.750 FPS (512 SPF) Stream size : 2.17 GiB (10%) Language : English Ses 2 Format : DTS XLL Commercial name : DTS-HD Master Audio Duration : 1 h 28 min Channel(s) : 2 channels Frame rate : 93.750 FPS (512 SPF) Stream size : 1.25 GiB (6%) Language : English Ses 3 Format : E-AC-3 Duration : 1 h 28 min Channel(s) : 6 channels Frame rate : 31.250 FPS (1536 SPF) Stream size : 405 MiB (2%) Language : English Ses 4 Format : AC-3 Format/Info : Audio Coding 3 Duration : 1 h 28 min Channel(s) : 6 channels Frame rate : 31.250 FPS (1536 SPF) Stream size : 284 MiB (1%) Language : English Altyazı #1 Format : PGS Duration : 1 h 27 min Frame rate : 0.232 FPS Stream size : 6.60 MiB (0%) Language : English Altyazı #2 Format : UTF-8 Duration : 1 h 27 min Frame rate : 0.116 FPS Stream size : 12.1 KiB (0%) Language : English İNDİRME LİNKİ TÜRKÇE ALTYAZI SAYFASI SuperUp turbobit.net, gofile.io, doodrive.com, megaup.net, send.cm, 1fichier.com, mixdrop.ag, pixeldrain.com, streamtape.com, rapidgator.net
    0 Cevap | 21 Görüntüleme
  • SuperUp nickli üyeye ait kullanıcı resmi (Avatar)
    5 Saat önce
    Hızlı ve Öfkeli 2: Daha Hızlı Daha Öfkeli - 2 Fast 2 Furious (2003) 1080p DUAL AMZN WEB-DL x264 - HdT IMDB LİNKİ Tür: Aksiyon, Suç, Gerilim Emekliye ayrılan Brian O'Connor, kendisini baştan çıkaran sokak yarışları ve yeraltı dünyasının kirli işlerine bulaşmadan duramaz. Eski dostu Roman Pearce ile birlikte takım kuran O'Connor, kirli para naklini gerçekleştirme operasyonu ile Miami'li tüccar Carter Verone'u yakalamanın peşindedir. Bu sırada el altından çalışan casus Monica Fuentes ile işbirliği yapar. Oyuncular: Paul Walker, Tyrese Gibson, Eva Mendes, Cole Hauser, Ludacris, James Remar, Thom Barry, Michael Ealy, Mark Boone Junior, Devon Aoki, Mo Gallini, Edward Finlay, Amaury Nolasco FİLM TANITIM LİNKİ FİLMDEN KARELER General Format : Matroska File size : 7.91 GiB Duration : 1 h 47 min Overall bit rate : 10.5 Mb/s Frame rate : 23.976 FPS Video Format : AVC Format/Info : Advanced Video Codec Duration : 1 h 47 min Width : 1 920 pixels Height : 816 pixels Frame rate : 23.976 (24000/1001) FPS Stream size : 7.25 GiB (92%) Ses 1 Format : E-AC-3 Duration : 1 h 47 min Channel(s) : 6 channels Frame rate : 31.250 FPS (1536 SPF) Stream size : 492 MiB (6%) Language : English Ses 2 Format : E-AC-3 Duration : 1 h 47 min Channel(s) : 2 channels Frame rate : 31.250 FPS (1536 SPF) Stream size : 172 MiB (2%) Language : Türkçe Altyazı #1 Format : UTF-8 Duration : 1 h 39 min Frame rate : 0.181 FPS Stream size : 26.2 KiB (0%) Language : Korean Altyazı #2 Format : UTF-8 Duration : 1 h 39 min Frame rate : 0.198 FPS Stream size : 27.1 KiB (0%) Language : Japanese Altyazı #3 Format : UTF-8 Duration : 1 h 39 min Frame rate : 0.176 FPS Stream size : 23.3 KiB (0%) Language : Chinese Altyazı #4 Format : UTF-8 Duration : 1 h 39 min Frame rate : 0.207 FPS Stream size : 27.7 KiB (0%) Language : Chinese Altyazı #5 Format : UTF-8 Duration : 1 h 39 min Frame rate : 0.179 FPS Stream size : 50.8 KiB (0%) Language : Arabic Altyazı #6 Format : UTF-8 Duration : 1 h 39 min Frame rate : 0.179 FPS Stream size : 50.9 KiB (0%) Language : Arabic Altyazı #7 Format : UTF-8 Duration : 1 h 18 min Frame rate : 0.001 FPS Stream size : 130 Bytes (0%) Language : Russian Altyazı #8 Format : UTF-8 Duration : 1 h 39 min Frame rate : 0.179 FPS Stream size : 55.8 KiB (0%) Language : Russian Altyazı #9 Format : UTF-8 Duration : 1 h 46 min Frame rate : 0.146 FPS Stream size : 46.7 KiB (0%) Language : Greek Altyazı #10 Format : UTF-8 Duration : 1 h 4 min Frame rate : 0.001 FPS Stream size : 114 Bytes (0%) Language : Czech Altyazı #11 Format : UTF-8 Duration : 1 h 46 min Frame rate : 0.167 FPS Stream size : 28.7 KiB (0%) Language : Czech Altyazı #12 Format : UTF-8 Duration : 1 h 39 min Frame rate : 0.174 FPS Stream size : 32.5 KiB (0%) Language : Türkçe Altyazı #13 Format : UTF-8 Duration : 1 h 39 min Frame rate : 0.176 FPS Stream size : 27.7 KiB (0%) Language : Swedish Altyazı #14 Format : UTF-8 Duration : 1 h 39 min Frame rate : 0.176 FPS Stream size : 27.6 KiB (0%) Language : Finnish Altyazı #15 Format : UTF-8 Duration : 1 h 39 min Frame rate : 0.182 FPS Stream size : 33.4 KiB (0%) Language : Romanian Altyazı #16 Format : UTF-8 Duration : 1 h 19 min Frame rate : 0.002 FPS Stream size : 141 Bytes (0%) Language : Portuguese Altyazı #17 Format : UTF-8 Duration : 1 h 46 min Frame rate : 0.164 FPS Stream size : 31.5 KiB (0%) Language : Portuguese Altyazı #18 Format : UTF-8 Duration : 1 h 42 min Frame rate : 0.172 FPS Stream size : 33.9 KiB (0%) Language : Portuguese Altyazı #19 Format : UTF-8 Duration : 1 s 209 ms Frame rate : 0.827 FPS Stream size : 16.0 Bytes (0%) Language : Polish Altyazı #20 Format : UTF-8 Duration : 1 h 39 min Frame rate : 0.179 FPS Stream size : 27.9 KiB (0%) Language : Polish Altyazı #21 Format : UTF-8 Duration : 1 h 39 min Frame rate : 0.181 FPS Stream size : 26.8 KiB (0%) Language : Norwegian Bokmal Altyazı #22 Format : UTF-8 Duration : 1 h 39 min Frame rate : 0.166 FPS Stream size : 24.8 KiB (0%) Language : Dutch Altyazı #23 Format : UTF-8 Duration : 1 h 36 min Frame rate : 0.002 FPS Stream size : 112 Bytes (0%) Language : Hungarian Altyazı #24 Format : UTF-8 Duration : 1 h 46 min Frame rate : 0.167 FPS Stream size : 26.7 KiB (0%) Language : Hungarian Altyazı #25 Format : UTF-8 Duration : 8 min 9 s Frame rate : 0.004 FPS Stream size : 26.0 Bytes (0%) Language : Italian Altyazı #26 Format : UTF-8 Duration : 1 h 39 min Frame rate : 0.181 FPS Stream size : 36.7 KiB (0%) Language : Italian Altyazı #27 Format : UTF-8 Duration : 8 min 9 s Frame rate : 0.006 FPS Stream size : 46.0 Bytes (0%) Language : French Altyazı #28 Format : UTF-8 Duration : 1 h 39 min Frame rate : 0.170 FPS Stream size : 28.9 KiB (0%) Language : French Altyazı #29 Format : UTF-8 Duration : 1 h 28 min Frame rate : 0.001 FPS Stream size : 112 Bytes (0%) Language : Spanish Altyazı #30 Format : UTF-8 Duration : 1 h 39 min Frame rate : 0.182 FPS Stream size : 33.7 KiB (0%) Language : Spanish Altyazı #31 Format : UTF-8 Duration : 1 h 19 min Frame rate : 0.001 FPS Stream size : 131 Bytes (0%) Language : Spanish Altyazı #32 Format : UTF-8 Duration : 1 h 39 min Frame rate : 0.178 FPS Stream size : 33.5 KiB (0%) Language : Spanish İNDİRME LİNKİ SuperUp turbobit.net, gofile.io, doodrive.com, megaup.net, send.cm, 1fichier.com, mixdrop.ag, pixeldrain.com, streamtape.com, rapidgator.net
    0 Cevap | 6 Görüntüleme
  • SuperUp nickli üyeye ait kullanıcı resmi (Avatar)
    5 Saat önce
    Hızlı ve Öfkeli 2: Daha Hızlı Daha Öfkeli - 2 Fast 2 Furious (2003) 1080p DUAL AMZN WEB-DL x264 - HdT IMDB LİNKİ Tür: Aksiyon, Suç, Gerilim Emekliye ayrılan Brian O'Connor, kendisini baştan çıkaran sokak yarışları ve yeraltı dünyasının kirli işlerine bulaşmadan duramaz. Eski dostu Roman Pearce ile birlikte takım kuran O'Connor, kirli para naklini gerçekleştirme operasyonu ile Miami'li tüccar Carter Verone'u yakalamanın peşindedir. Bu sırada el altından çalışan casus Monica Fuentes ile işbirliği yapar. Oyuncular: Paul Walker, Tyrese Gibson, Eva Mendes, Cole Hauser, Ludacris, James Remar, Thom Barry, Michael Ealy, Mark Boone Junior, Devon Aoki, Mo Gallini, Edward Finlay, Amaury Nolasco FİLM TANITIM LİNKİ FİLMDEN KARELER General Format : Matroska File size : 7.91 GiB Duration : 1 h 47 min Overall bit rate : 10.5 Mb/s Frame rate : 23.976 FPS Video Format : AVC Format/Info : Advanced Video Codec Duration : 1 h 47 min Width : 1 920 pixels Height : 816 pixels Frame rate : 23.976 (24000/1001) FPS Stream size : 7.25 GiB (92%) Ses 1 Format : E-AC-3 Duration : 1 h 47 min Channel(s) : 6 channels Frame rate : 31.250 FPS (1536 SPF) Stream size : 492 MiB (6%) Language : English Ses 2 Format : E-AC-3 Duration : 1 h 47 min Channel(s) : 2 channels Frame rate : 31.250 FPS (1536 SPF) Stream size : 172 MiB (2%) Language : Türkçe Altyazı #1 Format : UTF-8 Duration : 1 h 39 min Frame rate : 0.181 FPS Stream size : 26.2 KiB (0%) Language : Korean Altyazı #2 Format : UTF-8 Duration : 1 h 39 min Frame rate : 0.198 FPS Stream size : 27.1 KiB (0%) Language : Japanese Altyazı #3 Format : UTF-8 Duration : 1 h 39 min Frame rate : 0.176 FPS Stream size : 23.3 KiB (0%) Language : Chinese Altyazı #4 Format : UTF-8 Duration : 1 h 39 min Frame rate : 0.207 FPS Stream size : 27.7 KiB (0%) Language : Chinese Altyazı #5 Format : UTF-8 Duration : 1 h 39 min Frame rate : 0.179 FPS Stream size : 50.8 KiB (0%) Language : Arabic Altyazı #6 Format : UTF-8 Duration : 1 h 39 min Frame rate : 0.179 FPS Stream size : 50.9 KiB (0%) Language : Arabic Altyazı #7 Format : UTF-8 Duration : 1 h 18 min Frame rate : 0.001 FPS Stream size : 130 Bytes (0%) Language : Russian Altyazı #8 Format : UTF-8 Duration : 1 h 39 min Frame rate : 0.179 FPS Stream size : 55.8 KiB (0%) Language : Russian Altyazı #9 Format : UTF-8 Duration : 1 h 46 min Frame rate : 0.146 FPS Stream size : 46.7 KiB (0%) Language : Greek Altyazı #10 Format : UTF-8 Duration : 1 h 4 min Frame rate : 0.001 FPS Stream size : 114 Bytes (0%) Language : Czech Altyazı #11 Format : UTF-8 Duration : 1 h 46 min Frame rate : 0.167 FPS Stream size : 28.7 KiB (0%) Language : Czech Altyazı #12 Format : UTF-8 Duration : 1 h 39 min Frame rate : 0.174 FPS Stream size : 32.5 KiB (0%) Language : Türkçe Altyazı #13 Format : UTF-8 Duration : 1 h 39 min Frame rate : 0.176 FPS Stream size : 27.7 KiB (0%) Language : Swedish Altyazı #14 Format : UTF-8 Duration : 1 h 39 min Frame rate : 0.176 FPS Stream size : 27.6 KiB (0%) Language : Finnish Altyazı #15 Format : UTF-8 Duration : 1 h 39 min Frame rate : 0.182 FPS Stream size : 33.4 KiB (0%) Language : Romanian Altyazı #16 Format : UTF-8 Duration : 1 h 19 min Frame rate : 0.002 FPS Stream size : 141 Bytes (0%) Language : Portuguese Altyazı #17 Format : UTF-8 Duration : 1 h 46 min Frame rate : 0.164 FPS Stream size : 31.5 KiB (0%) Language : Portuguese Altyazı #18 Format : UTF-8 Duration : 1 h 42 min Frame rate : 0.172 FPS Stream size : 33.9 KiB (0%) Language : Portuguese Altyazı #19 Format : UTF-8 Duration : 1 s 209 ms Frame rate : 0.827 FPS Stream size : 16.0 Bytes (0%) Language : Polish Altyazı #20 Format : UTF-8 Duration : 1 h 39 min Frame rate : 0.179 FPS Stream size : 27.9 KiB (0%) Language : Polish Altyazı #21 Format : UTF-8 Duration : 1 h 39 min Frame rate : 0.181 FPS Stream size : 26.8 KiB (0%) Language : Norwegian Bokmal Altyazı #22 Format : UTF-8 Duration : 1 h 39 min Frame rate : 0.166 FPS Stream size : 24.8 KiB (0%) Language : Dutch Altyazı #23 Format : UTF-8 Duration : 1 h 36 min Frame rate : 0.002 FPS Stream size : 112 Bytes (0%) Language : Hungarian Altyazı #24 Format : UTF-8 Duration : 1 h 46 min Frame rate : 0.167 FPS Stream size : 26.7 KiB (0%) Language : Hungarian Altyazı #25 Format : UTF-8 Duration : 8 min 9 s Frame rate : 0.004 FPS Stream size : 26.0 Bytes (0%) Language : Italian Altyazı #26 Format : UTF-8 Duration : 1 h 39 min Frame rate : 0.181 FPS Stream size : 36.7 KiB (0%) Language : Italian Altyazı #27 Format : UTF-8 Duration : 8 min 9 s Frame rate : 0.006 FPS Stream size : 46.0 Bytes (0%) Language : French Altyazı #28 Format : UTF-8 Duration : 1 h 39 min Frame rate : 0.170 FPS Stream size : 28.9 KiB (0%) Language : French Altyazı #29 Format : UTF-8 Duration : 1 h 28 min Frame rate : 0.001 FPS Stream size : 112 Bytes (0%) Language : Spanish Altyazı #30 Format : UTF-8 Duration : 1 h 39 min Frame rate : 0.182 FPS Stream size : 33.7 KiB (0%) Language : Spanish Altyazı #31 Format : UTF-8 Duration : 1 h 19 min Frame rate : 0.001 FPS Stream size : 131 Bytes (0%) Language : Spanish Altyazı #32 Format : UTF-8 Duration : 1 h 39 min Frame rate : 0.178 FPS Stream size : 33.5 KiB (0%) Language : Spanish İNDİRME LİNKİ SuperUp turbobit.net, gofile.io, doodrive.com, megaup.net, send.cm, 1fichier.com, mixdrop.ag, pixeldrain.com, streamtape.com, rapidgator.net
    0 Cevap | 7 Görüntüleme
  • SuperUp nickli üyeye ait kullanıcı resmi (Avatar)
    5 Saat önce
    Bana Bir Şeyhler Oluyor (2003) DVD9 IMDB LİNKİ "Anlatacaklarım var! Vaaz vermek değil niyetim, duyduğumu söylemek. Söylemeye değer şeyler duyuyorum zira. Belki hayatı daha yaşanır kılmak için ya da belki sade, ama sade anlatmak için... Sen anlat dedi Tanrı bana, anlaşılsın diye değil, hiçbir mükafat istemeden anlat... Çünkü bir mükafattır artık bir anlatıcıya doğru düzgün anlaşılmak! Sen anlat dedi... Sen sade anlat! Umudu hatırlatsın diye umutsuzluğu, çareye yol açsın diye çaresizliği anlat... Ders verme dedi kimseye, çünkü hoca denmez öğrenmesini bitirene. Çırakları olan bir çıraktır usta, olsa olsa... Sen anlat dedi bana Tanrı, sen sade anlat..." Oyuncular: Yılmaz Erdoğan, Demet Akbağ, Altan Erkekli, Zerrin Sümer, Sinan Bengier, Binnur Kaya, Salih Kalyon, Bican Günalan, Caner Alkaya, Neslihan Yeldan, Celal Tak, Ayberk Atilla, Deniz Özerman, Tolga Çevik, Pelin Körmükçü İNDİRME LİNKİ SuperUp turbobit.net, gofile.io, doodrive.com, megaup.net, send.cm, 1fichier.com, mixdrop.ag, pixeldrain.com, streamtape.com, rapidgator.net
    0 Cevap | 6 Görüntüleme
  • SuperUp nickli üyeye ait kullanıcı resmi (Avatar)
    5 Saat önce
    Bana Bir Şeyhler Oluyor (2003) DVD9 IMDB LİNKİ "Anlatacaklarım var! Vaaz vermek değil niyetim, duyduğumu söylemek. Söylemeye değer şeyler duyuyorum zira. Belki hayatı daha yaşanır kılmak için ya da belki sade, ama sade anlatmak için... Sen anlat dedi Tanrı bana, anlaşılsın diye değil, hiçbir mükafat istemeden anlat... Çünkü bir mükafattır artık bir anlatıcıya doğru düzgün anlaşılmak! Sen anlat dedi... Sen sade anlat! Umudu hatırlatsın diye umutsuzluğu, çareye yol açsın diye çaresizliği anlat... Ders verme dedi kimseye, çünkü hoca denmez öğrenmesini bitirene. Çırakları olan bir çıraktır usta, olsa olsa... Sen anlat dedi bana Tanrı, sen sade anlat..." Oyuncular: Yılmaz Erdoğan, Demet Akbağ, Altan Erkekli, Zerrin Sümer, Sinan Bengier, Binnur Kaya, Salih Kalyon, Bican Günalan, Caner Alkaya, Neslihan Yeldan, Celal Tak, Ayberk Atilla, Deniz Özerman, Tolga Çevik, Pelin Körmükçü İNDİRME LİNKİ SuperUp turbobit.net, gofile.io, doodrive.com, megaup.net, send.cm, 1fichier.com, mixdrop.ag, pixeldrain.com, streamtape.com, rapidgator.net
    0 Cevap | 8 Görüntüleme
  • SuperUp nickli üyeye ait kullanıcı resmi (Avatar)
    5 Saat önce
    Romantik Komedi 2: Bekarlığa Veda (2013) DVD5 IMDB LİNKİ Tür: Komedi, Romantik Zeynep Ergün'le evli, Esra ise Mert'le evlilik hazırlığındadır. Didem arkadaşları arasında tek bekar olarak kalmıştır. Didem hala Cem'den bir evlilik teklifi alamaması yüzünden evlenmeye giden yol adlı bir kitabı okumaya başlar. Kitapta okuduğu taktikleri sevgilisi Cem ‘in üzerinde denediği halde olaylar hiç ummadığı şekilde gelişir. Aynı zamanda ünlü bir oyuncu olan Cem'in yeni filminde başrolü paylaştığı Gözde yüzünden Didem'in kıskançlık krizleri başlar. Didem, Esra ve Zeynep'i de yanına alarak Cem'i gizlice takibe alması erkekler tarafından planlanan Mert'in bekarlığa veda partisinin ortaya çıkmasına sebep olur. Bekarlığa Veda gecesinde yaşananlar bütün herkesin ilişkisinde sürprizlere yol açacaktır. Oyuncular: Sinem Kobal, Engin Altan Düzyatan, Sedef Avci, Cemal Hünal, Burcu Kara, Gürgen Öz, Öykü Çelik, Gökçe Özyol, Kubilay Penbeklioğlu, Özge Ulusoy, Nurseli İdiz, Rozet Hubeş, Ünal Silver, Ali Ersan Duru, Selim Bayraktar İNDİRME LİNKİ SuperUp turbobit.net, gofile.io, doodrive.com, megaup.net, send.cm, 1fichier.com, mixdrop.ag, pixeldrain.com, streamtape.com, rapidgator.net
    0 Cevap | 7 Görüntüleme
  • SuperUp nickli üyeye ait kullanıcı resmi (Avatar)
    5 Saat önce
    Romantik Komedi 2: Bekarlığa Veda (2013) DVD5 IMDB LİNKİ Tür: Komedi, Romantik Zeynep Ergün'le evli, Esra ise Mert'le evlilik hazırlığındadır. Didem arkadaşları arasında tek bekar olarak kalmıştır. Didem hala Cem'den bir evlilik teklifi alamaması yüzünden evlenmeye giden yol adlı bir kitabı okumaya başlar. Kitapta okuduğu taktikleri sevgilisi Cem ‘in üzerinde denediği halde olaylar hiç ummadığı şekilde gelişir. Aynı zamanda ünlü bir oyuncu olan Cem'in yeni filminde başrolü paylaştığı Gözde yüzünden Didem'in kıskançlık krizleri başlar. Didem, Esra ve Zeynep'i de yanına alarak Cem'i gizlice takibe alması erkekler tarafından planlanan Mert'in bekarlığa veda partisinin ortaya çıkmasına sebep olur. Bekarlığa Veda gecesinde yaşananlar bütün herkesin ilişkisinde sürprizlere yol açacaktır. Oyuncular: Sinem Kobal, Engin Altan Düzyatan, Sedef Avci, Cemal Hünal, Burcu Kara, Gürgen Öz, Öykü Çelik, Gökçe Özyol, Kubilay Penbeklioğlu, Özge Ulusoy, Nurseli İdiz, Rozet Hubeş, Ünal Silver, Ali Ersan Duru, Selim Bayraktar İNDİRME LİNKİ SuperUp turbobit.net, gofile.io, doodrive.com, megaup.net, send.cm, 1fichier.com, mixdrop.ag, pixeldrain.com, streamtape.com, rapidgator.net
    0 Cevap | 17 Görüntüleme
  • SuperUp nickli üyeye ait kullanıcı resmi (Avatar)
    5 Saat önce
    Mutlu Aile Defteri (2013) DVD5 IMDB LİNKİ Tür: Komedi Sert ve otoriter bir mizaca sahip Emekli Albay Yıldırım Taşyumruk günün birinde damdan düşer. Bu olay yıllar önce kendisinden koşa koşa kaçmış olan evlatlarını yeniden aynı çatı altında buluşturur. Yıldırım Bey artık daha güçlü, daha hızlı ve daha öfkelidir. Ve çocuklarının sakladığı sırları ortaya çıkarmakta kararlıdır. Çocukları ise yalanlarını sürdürmeye çalışırken her geçen gün daha da köşeye sıkışmaktadır. Kafası gittikçe karışan Yıldırım bey, yalanların, dolanların hangisi kime ait bir süre sonra ayırt edemez olur. Aslında önemli olan ise, en sonunda bu beş benzemez insanın tekrar aile olmayı başarıp Mutlu Aile Defteri'nde yer alıp alamayacaklarıdır? Bu film, o çatı altında yaşanacakların komik ve sevgi dolu hikayesidir. Oyuncular: Tuncel Kurtiz, İlker Aksum, Binnur Kaya, Bülent Emrah Parlak, Büşra Pekin, Öner Erkan, Goncagül Sunar, İlhamcan Çelikoğlu, Güner Özkul, Ceyhun Tutal, Erkan Köse, Nihat Durak, Ali Demirel, FİLM TANITIM LİNKİ İNDİRME LİNKİ SuperUp turbobit.net, gofile.io, doodrive.com, megaup.net, send.cm, 1fichier.com, mixdrop.ag, pixeldrain.com, streamtape.com, rapidgator.net
    0 Cevap | 7 Görüntüleme
  • SuperUp nickli üyeye ait kullanıcı resmi (Avatar)
    5 Saat önce
    Mutlu Aile Defteri (2013) DVD5 IMDB LİNKİ Tür: Komedi Sert ve otoriter bir mizaca sahip Emekli Albay Yıldırım Taşyumruk günün birinde damdan düşer. Bu olay yıllar önce kendisinden koşa koşa kaçmış olan evlatlarını yeniden aynı çatı altında buluşturur. Yıldırım Bey artık daha güçlü, daha hızlı ve daha öfkelidir. Ve çocuklarının sakladığı sırları ortaya çıkarmakta kararlıdır. Çocukları ise yalanlarını sürdürmeye çalışırken her geçen gün daha da köşeye sıkışmaktadır. Kafası gittikçe karışan Yıldırım bey, yalanların, dolanların hangisi kime ait bir süre sonra ayırt edemez olur. Aslında önemli olan ise, en sonunda bu beş benzemez insanın tekrar aile olmayı başarıp Mutlu Aile Defteri'nde yer alıp alamayacaklarıdır? Bu film, o çatı altında yaşanacakların komik ve sevgi dolu hikayesidir. Oyuncular: Tuncel Kurtiz, İlker Aksum, Binnur Kaya, Bülent Emrah Parlak, Büşra Pekin, Öner Erkan, Goncagül Sunar, İlhamcan Çelikoğlu, Güner Özkul, Ceyhun Tutal, Erkan Köse, Nihat Durak, Ali Demirel, FİLM TANITIM LİNKİ İNDİRME LİNKİ SuperUp turbobit.net, gofile.io, doodrive.com, megaup.net, send.cm, 1fichier.com, mixdrop.ag, pixeldrain.com, streamtape.com, rapidgator.net
    0 Cevap | 3 Görüntüleme
  • SuperUp nickli üyeye ait kullanıcı resmi (Avatar)
    5 Saat önce
    Kan Sporu - Bloodsport (1988) m1080p DUAL BluRay x264 IMDB LİNKİ Tür: Aksiyon, Gerilim Gerçek bir hikayeden yola çıkılarak çekilen Kan Sporunda Amerikalı Dövüşçü Frank Dux, Hong Kong'ta katıldığı Kumite turnuvasını kazanmak için ringe çıkmaktadır. Dux'un amacı bu turnuvayı kazanan ilk batılı olmaktır. Ona bu mücadelesinde, bir diğer amerikalı arkadaşı Ray Jackson ve gazeteci Janice Kent eşlik edecektir. Oyuncular: Bolo Yeung, Donald Gibb, Leah Ayres, Norman Burton, Forest Whitaker, Roy Chiao, Philip Chan, Paulo Tocha, Pierre Rafini, Kimo Lai Kwok Ki, Bill Yuen Ping Kuen, Joshua Schroder FİLM TANITIM LİNKİ FİLMDEN KARELER General Format : Matroska File size : 1.53 GiB Duration : 1 h 32 min Overall bit rate : 2 368 kb/s Frame rate : 23.976 FPS Video Format : AVC Format/Info : Advanced Video Codec Duration : 1 h 32 min Width : 1 920 pixels Height : 1 080 pixels Frame rate : 23.976 (24000/1001) FPS Stream size : 1.36 GiB (89%) Language : English Ses 1 Format : AAC LC SBR Format/Info : Advanced Audio Codec Low Complexity with Spectral Band Replication Duration : 1 h 32 min Channel(s) : 2 channels Frame rate : 10.767 FPS (2048 SPF) Stream size : 42.2 MiB (3%) Language : English Ses 2 Format : AC-3 Format/Info : Audio Coding 3 Duration : 1 h 32 min Channel(s) : 2 channels Frame rate : 31.250 FPS (1536 SPF) Stream size : 127 MiB (8%) Language : Türkçe Altyazı #1 Format : UTF-8 Duration : 1 h 26 min Frame rate : 0.148 FPS Stream size : 21.9 KiB (0%) Language : English Altyazı #2 Format : UTF-8 Duration : 1 h 25 min Frame rate : 0.114 FPS Stream size : 19.0 KiB (0%) Language : Türkçe İNDİRME LİNKİ SuperUp turbobit.net, gofile.io, doodrive.com, megaup.net, send.cm, 1fichier.com, mixdrop.ag, pixeldrain.com, streamtape.com, rapidgator.net
    0 Cevap | 10 Görüntüleme
  • SuperUp nickli üyeye ait kullanıcı resmi (Avatar)
    5 Saat önce
    Kan Sporu - Bloodsport (1988) m1080p DUAL BluRay x264 IMDB LİNKİ Tür: Aksiyon, Gerilim Gerçek bir hikayeden yola çıkılarak çekilen Kan Sporunda Amerikalı Dövüşçü Frank Dux, Hong Kong'ta katıldığı Kumite turnuvasını kazanmak için ringe çıkmaktadır. Dux'un amacı bu turnuvayı kazanan ilk batılı olmaktır. Ona bu mücadelesinde, bir diğer amerikalı arkadaşı Ray Jackson ve gazeteci Janice Kent eşlik edecektir. Oyuncular: Bolo Yeung, Donald Gibb, Leah Ayres, Norman Burton, Forest Whitaker, Roy Chiao, Philip Chan, Paulo Tocha, Pierre Rafini, Kimo Lai Kwok Ki, Bill Yuen Ping Kuen, Joshua Schroder FİLM TANITIM LİNKİ FİLMDEN KARELER General Format : Matroska File size : 1.53 GiB Duration : 1 h 32 min Overall bit rate : 2 368 kb/s Frame rate : 23.976 FPS Video Format : AVC Format/Info : Advanced Video Codec Duration : 1 h 32 min Width : 1 920 pixels Height : 1 080 pixels Frame rate : 23.976 (24000/1001) FPS Stream size : 1.36 GiB (89%) Language : English Ses 1 Format : AAC LC SBR Format/Info : Advanced Audio Codec Low Complexity with Spectral Band Replication Duration : 1 h 32 min Channel(s) : 2 channels Frame rate : 10.767 FPS (2048 SPF) Stream size : 42.2 MiB (3%) Language : English Ses 2 Format : AC-3 Format/Info : Audio Coding 3 Duration : 1 h 32 min Channel(s) : 2 channels Frame rate : 31.250 FPS (1536 SPF) Stream size : 127 MiB (8%) Language : Türkçe Altyazı #1 Format : UTF-8 Duration : 1 h 26 min Frame rate : 0.148 FPS Stream size : 21.9 KiB (0%) Language : English Altyazı #2 Format : UTF-8 Duration : 1 h 25 min Frame rate : 0.114 FPS Stream size : 19.0 KiB (0%) Language : Türkçe İNDİRME LİNKİ SuperUp turbobit.net, gofile.io, doodrive.com, megaup.net, send.cm, 1fichier.com, mixdrop.ag, pixeldrain.com, streamtape.com, rapidgator.net
    0 Cevap | 5 Görüntüleme
  • SuperUp nickli üyeye ait kullanıcı resmi (Avatar)
    5 Saat önce
    Kan Sporu - Bloodsport (1988) 1080p Türkçe Altyazılı REMUX IMDB LİNKİ Tür: Aksiyon, Gerilim Gerçek bir hikayeden yola çıkılarak çekilen Kan Sporunda Amerikalı Dövüşçü Frank Dux, Hong Kong'ta katıldığı Kumite turnuvasını kazanmak için ringe çıkmaktadır. Dux'un amacı bu turnuvayı kazanan ilk batılı olmaktır. Ona bu mücadelesinde, bir diğer amerikalı arkadaşı Ray Jackson ve gazeteci Janice Kent eşlik edecektir. Oyuncular: Bolo Yeung, Donald Gibb, Leah Ayres, Norman Burton, Forest Whitaker, Roy Chiao, Philip Chan, Paulo Tocha, Pierre Rafini, Kimo Lai Kwok Ki, Bill Yuen Ping Kuen, Joshua Schroder FİLM TANITIM LİNKİ FİLMDEN KARELER General Format : Matroska File size : 13.0 GiB Duration : 1 h 32 min Overall bit rate mode : Variable Overall bit rate : 20.2 Mb/s Frame rate : 23.976 FPS Video Format : VC-1 Duration : 1 h 32 min Width : 1 920 pixels Height : 1 080 pixels Frame rate : 23.976 (24000/1001) FPS Stream size : 11.9 GiB (92%) Language : English Audio Format : DTS XLL Commercial name : DTS-HD Master Audio Duration : 1 h 32 min Channel(s) : 2 channels Frame rate : 93.750 FPS (512 SPF) Stream size : 1.09 GiB (8%) Language : English Altyazı #1 Format : PGS Duration : 1 h 26 min Frame rate : 0.302 FPS Stream size : 5.72 MiB (0%) Language : English Altyazı #2 Format : PGS Duration : 1 h 26 min Frame rate : 0.234 FPS Stream size : 4.62 MiB (0%) Language : Türkçe İNDİRME LİNKİ SuperUp turbobit.net, gofile.io, doodrive.com, megaup.net, send.cm, 1fichier.com, mixdrop.ag, pixeldrain.com, streamtape.com, rapidgator.net
    0 Cevap | 7 Görüntüleme
  • SuperUp nickli üyeye ait kullanıcı resmi (Avatar)
    5 Saat önce
    Kan Sporu - Bloodsport (1988) 1080p Türkçe Altyazılı REMUX IMDB LİNKİ Tür: Aksiyon, Gerilim Gerçek bir hikayeden yola çıkılarak çekilen Kan Sporunda Amerikalı Dövüşçü Frank Dux, Hong Kong'ta katıldığı Kumite turnuvasını kazanmak için ringe çıkmaktadır. Dux'un amacı bu turnuvayı kazanan ilk batılı olmaktır. Ona bu mücadelesinde, bir diğer amerikalı arkadaşı Ray Jackson ve gazeteci Janice Kent eşlik edecektir. Oyuncular: Bolo Yeung, Donald Gibb, Leah Ayres, Norman Burton, Forest Whitaker, Roy Chiao, Philip Chan, Paulo Tocha, Pierre Rafini, Kimo Lai Kwok Ki, Bill Yuen Ping Kuen, Joshua Schroder FİLM TANITIM LİNKİ FİLMDEN KARELER General Format : Matroska File size : 13.0 GiB Duration : 1 h 32 min Overall bit rate mode : Variable Overall bit rate : 20.2 Mb/s Frame rate : 23.976 FPS Video Format : VC-1 Duration : 1 h 32 min Width : 1 920 pixels Height : 1 080 pixels Frame rate : 23.976 (24000/1001) FPS Stream size : 11.9 GiB (92%) Language : English Audio Format : DTS XLL Commercial name : DTS-HD Master Audio Duration : 1 h 32 min Channel(s) : 2 channels Frame rate : 93.750 FPS (512 SPF) Stream size : 1.09 GiB (8%) Language : English Altyazı #1 Format : PGS Duration : 1 h 26 min Frame rate : 0.302 FPS Stream size : 5.72 MiB (0%) Language : English Altyazı #2 Format : PGS Duration : 1 h 26 min Frame rate : 0.234 FPS Stream size : 4.62 MiB (0%) Language : Türkçe İNDİRME LİNKİ SuperUp turbobit.net, gofile.io, doodrive.com, megaup.net, send.cm, 1fichier.com, mixdrop.ag, pixeldrain.com, streamtape.com, rapidgator.net
    0 Cevap | 4 Görüntüleme
  • SuperUp nickli üyeye ait kullanıcı resmi (Avatar)
    5 Saat önce
    X Trillion (2024) 1080p TR BLUTV WEB-DL H264 - HdT IMDB LİNKİ Tür: Belgesel Sadece kadınların hayatlarını değil, gezegenimizin geleceğini de değiştirmeyi vaat eden bir yolculuk. X Trilyon, on dört kadını, Kuzey Pasifik Okyanusu boyunca 3000 mil boyunca dünyanın en uzak yerlerinden birine, aynı zamanda okyanus plastiğinin en yoğun birikiminin bulunduğu yere – Büyük Pasifik Çöp Yamasına - yelken açarken takip ediyor. Yaşamı onaylayan, iyimser bir macera, keşif, bilim ve dayanışma hikayesi. FİLM TANITIM LİNKİ FİLMDEN KARELER General Format : Matroska File size : 1.62 GiB Duration : 1 h 8 min Overall bit rate : 3 404 kb/s Frame rate : 25.000 FPS Video Format : AVC Format/Info : Advanced Video Codec Duration : 1 h 8 min Width : 1 920 pixels Height : 1 080 pixels Frame rate : 25.000 FPS Stream size : 1.53 GiB (94%) Language : English Audio Format : AAC LC Format/Info : Advanced Audio Codec Low Complexity Duration : 1 h 8 min Channel(s) : 2 channels Frame rate : 46.875 FPS (1024 SPF) Stream size : 93.4 MiB (6%) Language : English İNDİRME LİNKİ SuperUp turbobit.net, gofile.io, doodrive.com, megaup.net, send.cm, 1fichier.com, mixdrop.ag, pixeldrain.com, streamtape.com, rapidgator.net
    0 Cevap | 4 Görüntüleme
  • SuperUp nickli üyeye ait kullanıcı resmi (Avatar)
    5 Saat önce
    X Trillion (2024) 1080p TR BLUTV WEB-DL H264 - HdT IMDB LİNKİ Tür: Belgesel Sadece kadınların hayatlarını değil, gezegenimizin geleceğini de değiştirmeyi vaat eden bir yolculuk. X Trilyon, on dört kadını, Kuzey Pasifik Okyanusu boyunca 3000 mil boyunca dünyanın en uzak yerlerinden birine, aynı zamanda okyanus plastiğinin en yoğun birikiminin bulunduğu yere – Büyük Pasifik Çöp Yamasına - yelken açarken takip ediyor. Yaşamı onaylayan, iyimser bir macera, keşif, bilim ve dayanışma hikayesi. FİLM TANITIM LİNKİ FİLMDEN KARELER General Format : Matroska File size : 1.62 GiB Duration : 1 h 8 min Overall bit rate : 3 404 kb/s Frame rate : 25.000 FPS Video Format : AVC Format/Info : Advanced Video Codec Duration : 1 h 8 min Width : 1 920 pixels Height : 1 080 pixels Frame rate : 25.000 FPS Stream size : 1.53 GiB (94%) Language : English Audio Format : AAC LC Format/Info : Advanced Audio Codec Low Complexity Duration : 1 h 8 min Channel(s) : 2 channels Frame rate : 46.875 FPS (1024 SPF) Stream size : 93.4 MiB (6%) Language : English İNDİRME LİNKİ SuperUp turbobit.net, gofile.io, doodrive.com, megaup.net, send.cm, 1fichier.com, mixdrop.ag, pixeldrain.com, streamtape.com, rapidgator.net
    0 Cevap | 5 Görüntüleme
  • SuperUp nickli üyeye ait kullanıcı resmi (Avatar)
    8 Saat önce
    Sasquatch Sunset (2024) 720p BluRay x264 DD5.1 - TURG IMDB LİNKİ Tür: Fantastik, Komedi Sasquatch Sunset, eşsiz bir ailenin hayatının bir yılına odaklanıyor. Sasquatch ailesinin günlük yaşamı, unutulmaz bir ayrıntı ve titizlikle gözler önüne seriliyor. Oyuncular: Riley Keough, Jesse Eisenberg, Nathan Zellner, David Zellner, Nathan Zellner, Ari Aster, Riley Keough, David Zellner, Nathan Zellner, Jesse Eisenberg, David Zellner, FİLM TANITIM LİNKİ FİLMDEN KARELER General Format : Matroska File size : 4.08 GiB Duration : 1 h 28 min Overall bit rate : 6 586 kb/s Frame rate : 23.976 FPS Video Format : AVC Format/Info : Advanced Video Codec Duration : 1 h 28 min Width : 1 280 pixels Height : 536 pixels Frame rate : 23.976 (24000/1001) FPS Stream size : 3.68 GiB (90%) Language : Tatar Ses 1 Format : AC-3 Format/Info : Audio Coding 3 Duration : 1 h 28 min Channel(s) : 6 channels Frame rate : 31.250 FPS (1536 SPF) Stream size : 284 MiB (7%) Language : English Ses 2 Format : AAC LC Format/Info : Advanced Audio Codec Low Complexity Duration : 1 h 28 min Channel(s) : 2 channels Frame rate : 46.875 FPS (1024 SPF) Stream size : 120 MiB (3%) Language : English Format : UTF-8 Duration : 1 h 27 min Frame rate : 0.116 FPS Stream size : 12.1 KiB (0%) Language : English İNDİRME LİNKİ TÜRKÇE ALTYAZI SAYFASI SuperUp turbobit.net, gofile.io, doodrive.com, megaup.net, send.cm, 1fichier.com, mixdrop.ag, pixeldrain.com, streamtape.com, rapidgator.net
    0 Cevap | 10 Görüntüleme
  • SuperUp nickli üyeye ait kullanıcı resmi (Avatar)
    8 Saat önce
    Sasquatch Sunset (2024) 720p BluRay x264 DD5.1 - TURG IMDB LİNKİ Tür: Fantastik, Komedi Sasquatch Sunset, eşsiz bir ailenin hayatının bir yılına odaklanıyor. Sasquatch ailesinin günlük yaşamı, unutulmaz bir ayrıntı ve titizlikle gözler önüne seriliyor. Oyuncular: Riley Keough, Jesse Eisenberg, Nathan Zellner, David Zellner, Nathan Zellner, Ari Aster, Riley Keough, David Zellner, Nathan Zellner, Jesse Eisenberg, David Zellner, FİLM TANITIM LİNKİ FİLMDEN KARELER General Format : Matroska File size : 4.08 GiB Duration : 1 h 28 min Overall bit rate : 6 586 kb/s Frame rate : 23.976 FPS Video Format : AVC Format/Info : Advanced Video Codec Duration : 1 h 28 min Width : 1 280 pixels Height : 536 pixels Frame rate : 23.976 (24000/1001) FPS Stream size : 3.68 GiB (90%) Language : Tatar Ses 1 Format : AC-3 Format/Info : Audio Coding 3 Duration : 1 h 28 min Channel(s) : 6 channels Frame rate : 31.250 FPS (1536 SPF) Stream size : 284 MiB (7%) Language : English Ses 2 Format : AAC LC Format/Info : Advanced Audio Codec Low Complexity Duration : 1 h 28 min Channel(s) : 2 channels Frame rate : 46.875 FPS (1024 SPF) Stream size : 120 MiB (3%) Language : English Format : UTF-8 Duration : 1 h 27 min Frame rate : 0.116 FPS Stream size : 12.1 KiB (0%) Language : English İNDİRME LİNKİ TÜRKÇE ALTYAZI SAYFASI SuperUp turbobit.net, gofile.io, doodrive.com, megaup.net, send.cm, 1fichier.com, mixdrop.ag, pixeldrain.com, streamtape.com, rapidgator.net
    0 Cevap | 40 Görüntüleme
  • SuperUp nickli üyeye ait kullanıcı resmi (Avatar)
    8 Saat önce
    Sasquatch Sunset (2024) BDRip x264 - TURG IMDB LİNKİ Tür: Fantastik, Komedi Sasquatch Sunset, eşsiz bir ailenin hayatının bir yılına odaklanıyor. Sasquatch ailesinin günlük yaşamı, unutulmaz bir ayrıntı ve titizlikle gözler önüne seriliyor. Oyuncular: Riley Keough, Jesse Eisenberg, Nathan Zellner, David Zellner, Nathan Zellner, Ari Aster, Riley Keough, David Zellner, Nathan Zellner, Jesse Eisenberg, David Zellner, FİLM TANITIM LİNKİ FİLMDEN KARELER General Format : Matroska File size : 1.30 GiB Duration : 1 h 28 min Overall bit rate : 2 097 kb/s Frame rate : 23.976 FPS Video Format : AVC Format/Info : Advanced Video Codec Duration : 1 h 28 min Width : 854 pixels Height : 358 pixels Frame rate : 23.976 (24000/1001) FPS Stream size : 1.18 GiB (91%) Language : Tatar Audio Format : AAC LC Format/Info : Advanced Audio Codec Low Complexity Duration : 1 h 28 min Channel(s) : 2 channels Frame rate : 46.875 FPS (1024 SPF) Stream size : 120 MiB (9%) Language : English Format : UTF-8 Duration : 1 h 27 min Frame rate : 0.116 FPS Stream size : 12.1 KiB (0%) Language : English İNDİRME LİNKİ TÜRKÇE ALTYAZI SAYFASI SuperUp turbobit.net, gofile.io, doodrive.com, megaup.net, send.cm, 1fichier.com, mixdrop.ag, pixeldrain.com, streamtape.com, rapidgator.net
    0 Cevap | 8 Görüntüleme
  • SuperUp nickli üyeye ait kullanıcı resmi (Avatar)
    8 Saat önce
    Sasquatch Sunset (2024) BDRip x264 - TURG IMDB LİNKİ Tür: Fantastik, Komedi Sasquatch Sunset, eşsiz bir ailenin hayatının bir yılına odaklanıyor. Sasquatch ailesinin günlük yaşamı, unutulmaz bir ayrıntı ve titizlikle gözler önüne seriliyor. Oyuncular: Riley Keough, Jesse Eisenberg, Nathan Zellner, David Zellner, Nathan Zellner, Ari Aster, Riley Keough, David Zellner, Nathan Zellner, Jesse Eisenberg, David Zellner, FİLM TANITIM LİNKİ FİLMDEN KARELER General Format : Matroska File size : 1.30 GiB Duration : 1 h 28 min Overall bit rate : 2 097 kb/s Frame rate : 23.976 FPS Video Format : AVC Format/Info : Advanced Video Codec Duration : 1 h 28 min Width : 854 pixels Height : 358 pixels Frame rate : 23.976 (24000/1001) FPS Stream size : 1.18 GiB (91%) Language : Tatar Audio Format : AAC LC Format/Info : Advanced Audio Codec Low Complexity Duration : 1 h 28 min Channel(s) : 2 channels Frame rate : 46.875 FPS (1024 SPF) Stream size : 120 MiB (9%) Language : English Format : UTF-8 Duration : 1 h 27 min Frame rate : 0.116 FPS Stream size : 12.1 KiB (0%) Language : English İNDİRME LİNKİ TÜRKÇE ALTYAZI SAYFASI SuperUp turbobit.net, gofile.io, doodrive.com, megaup.net, send.cm, 1fichier.com, mixdrop.ag, pixeldrain.com, streamtape.com, rapidgator.net
    0 Cevap | 36 Görüntüleme
Daha Fazla Etkinlik
Cloudrip Hakkinda

Temel Bilgiler

İstatistik


Toplam konu
Toplam konu
2 (0.00%)
Günlük konu
0.04
Mesaj adeti
Mesaj adeti
30 (0.02%)
Günlük Ortalama Mesajlar
0.66
Son Mesaj
Kafalarına Göre S01 1080p 1 gün önce
Toplam teşekkür
Toplam teşekkür
8
Genel Bilgiler
Son Aktivitesi
1 gün önce
Üyelik tarihi
02.Mayıs.2024
Tavsiye Puanı
0

1 Arkadaşım

  1. SuperUp SuperUp isimli Üye şuanda  online konumundadır

    Super Moderator

    SuperUp
Arkadaşlar gösterme 1 to 1 of 1
1 2 3 4 5 6 7 8 9 10 11 12 13 14 15 16 17 18 19 20 21 22 23 24 25 26 27 28 29 30 31 32 33 34 35 36 37 38 39 40 41 42 43 44 45 46 47 48 49 50 51 52 53 54 55 56 57 58 59 60 61 62 63 64 65 66 67 68 69 70 71 72 73 74 75 76 77 78 79 80 81 82 83 84 85 86 87 88 89 90 91 92 93 94 95 96 97 98 99 100 101 102 103 104 105 106 107 108 109 110 111 112 113 114 115 116 117 118 119 120 121 122 123 124 125 126 127 128 129 130 131 132 133 134 135 136 137 138 139 140 141 142 143 144 145 146 147 148 149 150 151 152 153 154 155 156 157 158 159 160 161 162 163 164 165 166 167 168 169 170 171 172 173 174 175 176 177 178 179 180 181 182 183 184 185 186 187 188 189 190 191 192 193 194 195 196 197 198 199 200 201 202 203 204 205 206 207 208 209 210 211 212 213