• SuperUp nickli üyeye ait kullanıcı resmi (Avatar)
    1 saat önce
    Ruhlar Bölgesi: Son Anahtar - Insidious: The Last Key (2018) 1080p DUAL BluRay REMUX DTS-HD MA 5.1 - TURG IMDB LİNKİ Tür: Korku, Gizem, Gerilim Parlak bir medyumluk yeteneğine sahip iblis uzmanı Elise Rainier bütün hayatını sonsuz karanlıkta kötücül anahtarlar açmış yaratıklara engel olmaya adamıştır. Çocukken ölülerle iletişim kurabilen Elise, yanlışlıkla dünyamıza çok kötü bir şeyin girmesine neden olmuştur. Film, Elise'i çocukluğunun geçtiği eve götürüyor. Anahtar Surat'ı yenerse, kapana kısılmış ruhları sonsuza dek özgür kılacaktır. Oyuncular: Lin Shaye, Angus Sampson, Kirk Acevedo, Caitlin Gerard, Spencer Locke, Josh Stewart, Tessa Ferrer, Aleque Reid, Ava Kolker FİLM TANITIM LİNKİ FİLMDEN KARELER General Format : Matroska File size : 21.8 GiB Duration : 1 h 43 min Overall bit rate mode : Variable Overall bit rate : 30.2 Mb/s Frame rate : 23.976 FPS Video Format : AVC Format/Info : Advanced Video Codec Duration : 1 h 43 min Width : 1 920 pixels Height : 1 080 pixels Frame rate : 23.976 (24000/1001) FPS Stream size : 18.7 GiB (86%) Language : English Ses 1 Format : DTS XLL Commercial name : DTS-HD Master Audio Duration : 1 h 43 min Channel(s) : 6 channels Frame rate : 93.750 FPS (512 SPF) Stream size : 1.55 GiB (7%) Language : English Ses 2 Format : DTS Duration : 1 h 43 min Channel(s) : 6 channels Frame rate : 93.750 FPS (512 SPF) Stream size : 1.09 GiB (5%) Language : English Ses 3 Format : AC-3 Format/Info : Audio Coding 3 Duration : 1 h 43 min Channel(s) : 6 channels Frame rate : 31.250 FPS (1536 SPF) Stream size : 473 MiB (2%) Language : Türkçe Altyazı #1 Format : PGS Duration : 1 h 34 min Frame rate : 0.295 FPS Stream size : 14.4 MiB (0%) Language : English Altyazı #2 Format : PGS Duration : 1 h 42 min Frame rate : 0.277 FPS Stream size : 15.1 MiB (0%) Language : Türkçe İNDİRME LİNKİ https://iniyor.net/tb/82e360a12b4088b1d13d370330fe69c6/Ruhlar%20Bolgesi%20Son%20Anahtar%20-%20Insidious%20The%20Last%20Key%202018%201080P%20Bluray%20Remux%20TR-EN%20DTS-HD.MA.5.1%20TURG.mkv.html SuperUp turbobit.net, gofile.io, doodrive.com, megaup.net, send.cm, 1fichier.com, mixdrop.ag, pixeldrain.com, streamtape.com, rapidgator.net
    0 Cevap | 0 Görüntüleme
  • SuperUp nickli üyeye ait kullanıcı resmi (Avatar)
    1 saat önce
    Ruhlar Bölgesi: Son Anahtar - Insidious: The Last Key (2018) 1080p DUAL BluRay REMUX DTS-HD MA 5.1 - TURG IMDB LİNKİ Tür: Korku, Gizem, Gerilim Parlak bir medyumluk yeteneğine sahip iblis uzmanı Elise Rainier bütün hayatını sonsuz karanlıkta kötücül anahtarlar açmış yaratıklara engel olmaya adamıştır. Çocukken ölülerle iletişim kurabilen Elise, yanlışlıkla dünyamıza çok kötü bir şeyin girmesine neden olmuştur. Film, Elise'i çocukluğunun geçtiği eve götürüyor. Anahtar Surat'ı yenerse, kapana kısılmış ruhları sonsuza dek özgür kılacaktır. Oyuncular: Lin Shaye, Angus Sampson, Kirk Acevedo, Caitlin Gerard, Spencer Locke, Josh Stewart, Tessa Ferrer, Aleque Reid, Ava Kolker FİLM TANITIM LİNKİ FİLMDEN KARELER General Format : Matroska File size : 21.8 GiB Duration : 1 h 43 min Overall bit rate mode : Variable Overall bit rate : 30.2 Mb/s Frame rate : 23.976 FPS Video Format : AVC Format/Info : Advanced Video Codec Duration : 1 h 43 min Width : 1 920 pixels Height : 1 080 pixels Frame rate : 23.976 (24000/1001) FPS Stream size : 18.7 GiB (86%) Language : English Ses 1 Format : DTS XLL Commercial name : DTS-HD Master Audio Duration : 1 h 43 min Channel(s) : 6 channels Frame rate : 93.750 FPS (512 SPF) Stream size : 1.55 GiB (7%) Language : English Ses 2 Format : DTS Duration : 1 h 43 min Channel(s) : 6 channels Frame rate : 93.750 FPS (512 SPF) Stream size : 1.09 GiB (5%) Language : English Ses 3 Format : AC-3 Format/Info : Audio Coding 3 Duration : 1 h 43 min Channel(s) : 6 channels Frame rate : 31.250 FPS (1536 SPF) Stream size : 473 MiB (2%) Language : Türkçe Altyazı #1 Format : PGS Duration : 1 h 34 min Frame rate : 0.295 FPS Stream size : 14.4 MiB (0%) Language : English Altyazı #2 Format : PGS Duration : 1 h 42 min Frame rate : 0.277 FPS Stream size : 15.1 MiB (0%) Language : Türkçe İNDİRME LİNKİ https://iniyor.net/tb/82e360a12b4088b1d13d370330fe69c6/Ruhlar%20Bolgesi%20Son%20Anahtar%20-%20Insidious%20The%20Last%20Key%202018%201080P%20Bluray%20Remux%20TR-EN%20DTS-HD.MA.5.1%20TURG.mkv.html SuperUp turbobit.net, gofile.io, doodrive.com, megaup.net, send.cm, 1fichier.com, mixdrop.ag, pixeldrain.com, streamtape.com, rapidgator.net
    0 Cevap | 0 Görüntüleme
  • SuperUp nickli üyeye ait kullanıcı resmi (Avatar)
    1 saat önce
    Sır: Hayal Etmekten Korkma - The Secret: Dare to Dream (2020) 1080p DUAL BluRay REMUX AVC DTS-HD MA 5.1 - HdT IMDB LİNKİ Tür: Dram, Romantik The Secret: Dare to Dream merkezine, üç çocuğunu tek başına ve çok çalışarak büyütmeye çalışan Miranda Wells'i ve ailesini alıyor. Güçlü bir fırtına hayatına yıkıcı bir meydan okuma ve gizemli bir adam, Bray Johnson'u getiriyor. Kısa bir süre sonra, Bray'in varlığı ailenin ruhunu yeniden canlandırıyor ancak kendisinin taşıdığı bilmedikleri bir sır vardır ve bu sır her şeyi değiştirebilir. Oyuncular: Katie Holmes, Josh Lucas, Celia Weston, Sarah Hoffmeister, Aidan Pierce Brennan, Chloe Lee, Katrina Begin, Sydney Tennant, Samantha Beaulieu FİLM TANITIM LİNKİ FİLMDEN KARELER General Format : Matroska File size : 29.8 GiB Duration : 1 h 48 min Overall bit rate mode : Variable Overall bit rate : 39.5 Mb/s Frame rate : 23.976 FPS Video Format : AVC Format/Info : Advanced Video Codec Duration : 1 h 47 min Width : 1 920 pixels Height : 1 080 pixels Frame rate : 23.976 (24000/1001) FPS Stream size : 26.5 GiB (89%) Language : English Ses 1 Format : E-AC-3 Duration : 1 h 48 min Channel(s) : 6 channels Frame rate : 31.250 FPS (1536 SPF) Stream size : 495 MiB (2%) Language : Türkçe Ses 2 Format : DTS XLL Commercial name : DTS-HD Master Audio Duration : 1 h 47 min Channel(s) : 6 channels Frame rate : 93.750 FPS (512 SPF) Stream size : 2.71 GiB (9%) Language : English Altyazı #1 Format : UTF-8 Codec ID/Info : UTF-8 Plain Altyazı Duration : 1 h 46 min Frame rate : 0.005 FPS Stream size : 929 Bytes (0%) Language : Türkçe Altyazı #2 Format : UTF-8 Codec ID/Info : UTF-8 Plain Altyazı Duration : 1 h 46 min Frame rate : 0.220 FPS Stream size : 43.9 KiB (0%) Language : Türkçe Altyazı #3 Format : UTF-8 Codec ID/Info : UTF-8 Plain Altyazı Duration : 1 h 39 min Frame rate : 0.259 FPS Stream size : 48.3 KiB (0%) Language : English Altyazı #4 Format : PGS Duration : 1 h 40 min Frame rate : 0.506 FPS Stream size : 30.5 MiB (0%) Language : English Altyazı #5 Format : PGS Duration : 1 h 45 min Frame rate : 0.441 FPS Stream size : 28.0 MiB (0%) Language : Spanish Altyazı #6 Format : PGS Duration : 1 h 45 min Frame rate : 0.425 FPS Stream size : 26.6 MiB (0%) Language : French İNDİRME LİNKİ https://iniyor.net/tb/d2b269eba4e15307cae43067dbdfedcf/The%20Secret%20Dare%20to%20Dream%202020%201080p%20DUAL%20BluRay%20REMUX%20AVC%20DTS-HD%20MA%205.1%20-%20FGT%20HdT.mkv.html SuperUp turbobit.net, gofile.io, doodrive.com, megaup.net, send.cm, 1fichier.com, mixdrop.ag, pixeldrain.com, streamtape.com, rapidgator.net
    0 Cevap | 0 Görüntüleme
  • SuperUp nickli üyeye ait kullanıcı resmi (Avatar)
    1 saat önce
    Sır: Hayal Etmekten Korkma - The Secret: Dare to Dream (2020) 1080p DUAL BluRay REMUX AVC DTS-HD MA 5.1 - HdT IMDB LİNKİ Tür: Dram, Romantik The Secret: Dare to Dream merkezine, üç çocuğunu tek başına ve çok çalışarak büyütmeye çalışan Miranda Wells'i ve ailesini alıyor. Güçlü bir fırtına hayatına yıkıcı bir meydan okuma ve gizemli bir adam, Bray Johnson'u getiriyor. Kısa bir süre sonra, Bray'in varlığı ailenin ruhunu yeniden canlandırıyor ancak kendisinin taşıdığı bilmedikleri bir sır vardır ve bu sır her şeyi değiştirebilir. Oyuncular: Katie Holmes, Josh Lucas, Celia Weston, Sarah Hoffmeister, Aidan Pierce Brennan, Chloe Lee, Katrina Begin, Sydney Tennant, Samantha Beaulieu FİLM TANITIM LİNKİ FİLMDEN KARELER General Format : Matroska File size : 29.8 GiB Duration : 1 h 48 min Overall bit rate mode : Variable Overall bit rate : 39.5 Mb/s Frame rate : 23.976 FPS Video Format : AVC Format/Info : Advanced Video Codec Duration : 1 h 47 min Width : 1 920 pixels Height : 1 080 pixels Frame rate : 23.976 (24000/1001) FPS Stream size : 26.5 GiB (89%) Language : English Ses 1 Format : E-AC-3 Duration : 1 h 48 min Channel(s) : 6 channels Frame rate : 31.250 FPS (1536 SPF) Stream size : 495 MiB (2%) Language : Türkçe Ses 2 Format : DTS XLL Commercial name : DTS-HD Master Audio Duration : 1 h 47 min Channel(s) : 6 channels Frame rate : 93.750 FPS (512 SPF) Stream size : 2.71 GiB (9%) Language : English Altyazı #1 Format : UTF-8 Codec ID/Info : UTF-8 Plain Altyazı Duration : 1 h 46 min Frame rate : 0.005 FPS Stream size : 929 Bytes (0%) Language : Türkçe Altyazı #2 Format : UTF-8 Codec ID/Info : UTF-8 Plain Altyazı Duration : 1 h 46 min Frame rate : 0.220 FPS Stream size : 43.9 KiB (0%) Language : Türkçe Altyazı #3 Format : UTF-8 Codec ID/Info : UTF-8 Plain Altyazı Duration : 1 h 39 min Frame rate : 0.259 FPS Stream size : 48.3 KiB (0%) Language : English Altyazı #4 Format : PGS Duration : 1 h 40 min Frame rate : 0.506 FPS Stream size : 30.5 MiB (0%) Language : English Altyazı #5 Format : PGS Duration : 1 h 45 min Frame rate : 0.441 FPS Stream size : 28.0 MiB (0%) Language : Spanish Altyazı #6 Format : PGS Duration : 1 h 45 min Frame rate : 0.425 FPS Stream size : 26.6 MiB (0%) Language : French İNDİRME LİNKİ https://iniyor.net/tb/d2b269eba4e15307cae43067dbdfedcf/The%20Secret%20Dare%20to%20Dream%202020%201080p%20DUAL%20BluRay%20REMUX%20AVC%20DTS-HD%20MA%205.1%20-%20FGT%20HdT.mkv.html SuperUp turbobit.net, gofile.io, doodrive.com, megaup.net, send.cm, 1fichier.com, mixdrop.ag, pixeldrain.com, streamtape.com, rapidgator.net
    0 Cevap | 0 Görüntüleme
  • SuperUp nickli üyeye ait kullanıcı resmi (Avatar)
    1 saat önce
    Zaferin Rengi (2024) 1080p NF WEB-DL H264 DDP5.1 - TURG IMDB LİNKİ Tür: Tarih, Dram Zaferin Rengi, 1919 yılında İstanbul'u işgal eden düşman kuvvetlerine karşı örgütlenen insanların Anadolu'da başlattıkları direnişi, Cumhuriyet tarihinin en önemli spor başarılarından olan General Harington Kupası efsanesinin etrafında anlatıyor. Oyuncular: Kubilay Aka, Timuçin Esen, Nejat İşler, Gülper Özdemir, Adam Bay, Gonca Vuslateri, Birce Akalay, Yiğit Özşener, Şeyma Peçe, Lorin Merhart FİLM TANITIM LİNKİ FİLMDEN KARELER General Format : Matroska File size : 6.12 GiB Duration : 2 h 36 min Overall bit rate mode : Variable Overall bit rate : 5 586 kb/s Frame rate : 25.000 FPS Video Format : AVC Format/Info : Advanced Video Codec Duration : 2 h 36 min Width : 1 920 pixels Height : 1 080 pixels Frame rate : 25.000 FPS Stream size : 5.41 GiB (89%) Audio Format : E-AC-3 Duration : 2 h 36 min Channel(s) : 6 channels Frame rate : 31.250 FPS (1536 SPF) Stream size : 718 MiB (11%) Language : Türkçe Altyazı #1 Format : UTF-8 Codec ID/Info : UTF-8 Plain Altyazı Duration : 2 h 36 min Frame rate : 0.165 FPS Stream size : 49.1 KiB (0%) Language : Türkçe Altyazı #2 Format : UTF-8 Codec ID/Info : UTF-8 Plain Altyazı Duration : 2 h 32 min Frame rate : 0.022 FPS Stream size : 6.70 KiB (0%) Language : Türkçe İNDİRME LİNKİ https://iniyor.net/tb/64397462df8e3b7dc1268439d68a1767/Zaferin.Rengi.2024.1080p.NF.WEB-DL.DDP5.1.H.264-TURG.mkv.html SuperUp turbobit.net, gofile.io, doodrive.com, megaup.net, send.cm, 1fichier.com, mixdrop.ag, pixeldrain.com, streamtape.com, rapidgator.net
    0 Cevap | 0 Görüntüleme
  • SuperUp nickli üyeye ait kullanıcı resmi (Avatar)
    1 saat önce
    Zaferin Rengi (2024) 1080p NF WEB-DL H264 DDP5.1 - TURG IMDB LİNKİ Tür: Tarih, Dram Zaferin Rengi, 1919 yılında İstanbul'u işgal eden düşman kuvvetlerine karşı örgütlenen insanların Anadolu'da başlattıkları direnişi, Cumhuriyet tarihinin en önemli spor başarılarından olan General Harington Kupası efsanesinin etrafında anlatıyor. Oyuncular: Kubilay Aka, Timuçin Esen, Nejat İşler, Gülper Özdemir, Adam Bay, Gonca Vuslateri, Birce Akalay, Yiğit Özşener, Şeyma Peçe, Lorin Merhart FİLM TANITIM LİNKİ FİLMDEN KARELER General Format : Matroska File size : 6.12 GiB Duration : 2 h 36 min Overall bit rate mode : Variable Overall bit rate : 5 586 kb/s Frame rate : 25.000 FPS Video Format : AVC Format/Info : Advanced Video Codec Duration : 2 h 36 min Width : 1 920 pixels Height : 1 080 pixels Frame rate : 25.000 FPS Stream size : 5.41 GiB (89%) Audio Format : E-AC-3 Duration : 2 h 36 min Channel(s) : 6 channels Frame rate : 31.250 FPS (1536 SPF) Stream size : 718 MiB (11%) Language : Türkçe Altyazı #1 Format : UTF-8 Codec ID/Info : UTF-8 Plain Altyazı Duration : 2 h 36 min Frame rate : 0.165 FPS Stream size : 49.1 KiB (0%) Language : Türkçe Altyazı #2 Format : UTF-8 Codec ID/Info : UTF-8 Plain Altyazı Duration : 2 h 32 min Frame rate : 0.022 FPS Stream size : 6.70 KiB (0%) Language : Türkçe İNDİRME LİNKİ https://iniyor.net/tb/64397462df8e3b7dc1268439d68a1767/Zaferin.Rengi.2024.1080p.NF.WEB-DL.DDP5.1.H.264-TURG.mkv.html SuperUp turbobit.net, gofile.io, doodrive.com, megaup.net, send.cm, 1fichier.com, mixdrop.ag, pixeldrain.com, streamtape.com, rapidgator.net
    0 Cevap | 1 Görüntüleme
  • SuperUp nickli üyeye ait kullanıcı resmi (Avatar)
    2 Saat önce
    Duyular İmparatorluğu - In The Realm of the Senses - Ai no korida (1976) 1080p BluRay REMUX AVC Türkçe Altyazılı IMDB LİNKİ Tür: Dram, Romantik Genç bir fahişe çalıştığı genelevin sahibinin sevgilisi ile beraber olur. Cinsel zevki ilk kez tadar. Tabii aşk/saplantı tarzı bir duygu da gelişir bu iki insanın arasında. Sonunda çift evlenmeye karar verir. Buna karşın kız erkeğini elinden kaçırma korkusu ile onu sürekli iğdiş etmekle tehdit etmektedir. Gelmiş geçmiş en sert ve tartışmalı filmlerden biri. Arızalı bir aşk öyküsünü, zaman zaman pornografinin sınırlarında dolaşarak ama asla söylendiği gibi kaba bir pornoya dönüşmeden, Oshima'nın üslupçu ve estetiksel tavrıyla anlatıldığı bir film. FİLM TANITIM LİNKİ FİLMDEN KARELER General Format : Matroska File size : 25.7 GiB Duration : 1 h 42 min Overall bit rate mode : Variable Overall bit rate : 35.9 Mb/s Frame rate : 23.976 FPS Video Format : AVC Format/Info : Advanced Video Codec Duration : 1 h 42 min Width : 1 920 pixels Height : 1 080 pixels Frame rate : 23.976 (24000/1001) FPS Stream size : 25.0 GiB (97%) Language : English Ses 1 Format : FLAC Format/Info : Free Lossless Audio Codec Duration : 1 h 42 min Channel(s) : 1 channel Frame rate : 11.719 FPS (4096 SPF) Stream size : 480 MiB (2%) Language : Japanese Ses 2 Format : AC-3 Format/Info : Audio Coding 3 Duration : 1 h 42 min Channel(s) : 1 channel Frame rate : 31.250 FPS (1536 SPF) Stream size : 141 MiB (0%) Language : English Altyazı #1 Format : UTF-8 Codec ID/Info : UTF-8 Plain Altyazı Duration : 1 h 39 min Frame rate : 0.138 FPS Stream size : 20.5 KiB (0%) Language : English Altyazı #2 Format : PGS Duration : 1 h 39 min Frame rate : 0.276 FPS Stream size : 17.1 MiB (0%) Language : English Altyazı #3 Format : PGS Duration : 1 h 39 min Frame rate : 0.277 FPS Stream size : 18.8 MiB (0%) Language : English Altyazı #4 Format : UTF-8 Codec ID/Info : UTF-8 Plain Altyazı Duration : 1 h 40 min Frame rate : 0.150 FPS Stream size : 15.4 KiB (0%) Language : Chinese (Traditional) Altyazı #5 Format : PGS Duration : 1 h 40 min Frame rate : 0.300 FPS Stream size : 16.1 MiB (0%) Language : Chinese (Traditional) Altyazı #6 Format : UTF-8 Codec ID/Info : UTF-8 Plain Altyazı Duration : 1 h 39 min Frame rate : 0.090 FPS Stream size : 17.4 KiB (0%) Language : Dutch Altyazı #7 Format : UTF-8 Codec ID/Info : UTF-8 Plain Altyazı Duration : 1 h 40 min Frame rate : 0.126 FPS Stream size : 16.9 KiB (0%) Language : French Altyazı #8 Format : PGS Duration : 1 h 40 min Frame rate : 0.249 FPS Stream size : 9.36 MiB (0%) Language : French Altyazı #9 Format : PGS Duration : 1 h 42 min Frame rate : 0.336 FPS Stream size : 14.5 MiB (0%) Language : French Altyazı #10 Format : UTF-8 Codec ID/Info : UTF-8 Plain Altyazı Duration : 1 h 39 min Frame rate : 0.135 FPS Stream size : 20.5 KiB (0%) Language : German Altyazı #11 Format : UTF-8 Codec ID/Info : UTF-8 Plain Altyazı Duration : 1 h 39 min Frame rate : 0.098 FPS Stream size : 19.1 KiB (0%) Language : Italian Altyazı #12 Format : UTF-8 Codec ID/Info : UTF-8 Plain Altyazı Duration : 1 h 40 min Frame rate : 0.161 FPS Stream size : 30.4 KiB (0%) Language : Japanese Altyazı #13 Format : UTF-8 Codec ID/Info : UTF-8 Plain Altyazı Duration : 1 h 39 min Frame rate : 0.138 FPS Stream size : 20.3 KiB (0%) Language : Korean Altyazı #14 Format : UTF-8 Codec ID/Info : UTF-8 Plain Altyazı Duration : 1 h 39 min Frame rate : 0.115 FPS Stream size : 21.6 KiB (0%) Language : Portuguese Altyazı #15 Format : UTF-8 Codec ID/Info : UTF-8 Plain Altyazı Duration : 1 h 39 min Frame rate : 0.139 FPS Stream size : 25.0 KiB (0%) Language : Spanish Altyazı #16 Format : UTF-8 Codec ID/Info : UTF-8 Plain Altyazı Duration : 1 h 39 min Frame rate : 0.138 FPS Stream size : 21.2 KiB (0%) Language : Türkçe Altyazı #17 Format : UTF-8 Codec ID/Info : UTF-8 Plain Altyazı Duration : 1 h 42 min Frame rate : 0.310 FPS Stream size : 89.7 KiB (0%) Language : English İNDİRME LİNKİ https://iniyor.net/tb/7171f5c6b022b14d62cda7e459092c71/Ai.no.korida.1976.AKA.In.The.Realm.of.the.Senses.1080p.Blu-ray.Remux.AVC.FLAC1.0-CiNEPHiLES.mkv.html SuperUp turbobit.net, gofile.io, doodrive.com, megaup.net, send.cm, 1fichier.com, mixdrop.ag, pixeldrain.com, streamtape.com, rapidgator.net
    0 Cevap | 0 Görüntüleme
  • SuperUp nickli üyeye ait kullanıcı resmi (Avatar)
    2 Saat önce
    Duyular İmparatorluğu - In The Realm of the Senses - Ai no korida (1976) 1080p BluRay REMUX AVC Türkçe Altyazılı IMDB LİNKİ Tür: Dram, Romantik Genç bir fahişe çalıştığı genelevin sahibinin sevgilisi ile beraber olur. Cinsel zevki ilk kez tadar. Tabii aşk/saplantı tarzı bir duygu da gelişir bu iki insanın arasında. Sonunda çift evlenmeye karar verir. Buna karşın kız erkeğini elinden kaçırma korkusu ile onu sürekli iğdiş etmekle tehdit etmektedir. Gelmiş geçmiş en sert ve tartışmalı filmlerden biri. Arızalı bir aşk öyküsünü, zaman zaman pornografinin sınırlarında dolaşarak ama asla söylendiği gibi kaba bir pornoya dönüşmeden, Oshima'nın üslupçu ve estetiksel tavrıyla anlatıldığı bir film. FİLM TANITIM LİNKİ FİLMDEN KARELER General Format : Matroska File size : 25.7 GiB Duration : 1 h 42 min Overall bit rate mode : Variable Overall bit rate : 35.9 Mb/s Frame rate : 23.976 FPS Video Format : AVC Format/Info : Advanced Video Codec Duration : 1 h 42 min Width : 1 920 pixels Height : 1 080 pixels Frame rate : 23.976 (24000/1001) FPS Stream size : 25.0 GiB (97%) Language : English Ses 1 Format : FLAC Format/Info : Free Lossless Audio Codec Duration : 1 h 42 min Channel(s) : 1 channel Frame rate : 11.719 FPS (4096 SPF) Stream size : 480 MiB (2%) Language : Japanese Ses 2 Format : AC-3 Format/Info : Audio Coding 3 Duration : 1 h 42 min Channel(s) : 1 channel Frame rate : 31.250 FPS (1536 SPF) Stream size : 141 MiB (0%) Language : English Altyazı #1 Format : UTF-8 Codec ID/Info : UTF-8 Plain Altyazı Duration : 1 h 39 min Frame rate : 0.138 FPS Stream size : 20.5 KiB (0%) Language : English Altyazı #2 Format : PGS Duration : 1 h 39 min Frame rate : 0.276 FPS Stream size : 17.1 MiB (0%) Language : English Altyazı #3 Format : PGS Duration : 1 h 39 min Frame rate : 0.277 FPS Stream size : 18.8 MiB (0%) Language : English Altyazı #4 Format : UTF-8 Codec ID/Info : UTF-8 Plain Altyazı Duration : 1 h 40 min Frame rate : 0.150 FPS Stream size : 15.4 KiB (0%) Language : Chinese (Traditional) Altyazı #5 Format : PGS Duration : 1 h 40 min Frame rate : 0.300 FPS Stream size : 16.1 MiB (0%) Language : Chinese (Traditional) Altyazı #6 Format : UTF-8 Codec ID/Info : UTF-8 Plain Altyazı Duration : 1 h 39 min Frame rate : 0.090 FPS Stream size : 17.4 KiB (0%) Language : Dutch Altyazı #7 Format : UTF-8 Codec ID/Info : UTF-8 Plain Altyazı Duration : 1 h 40 min Frame rate : 0.126 FPS Stream size : 16.9 KiB (0%) Language : French Altyazı #8 Format : PGS Duration : 1 h 40 min Frame rate : 0.249 FPS Stream size : 9.36 MiB (0%) Language : French Altyazı #9 Format : PGS Duration : 1 h 42 min Frame rate : 0.336 FPS Stream size : 14.5 MiB (0%) Language : French Altyazı #10 Format : UTF-8 Codec ID/Info : UTF-8 Plain Altyazı Duration : 1 h 39 min Frame rate : 0.135 FPS Stream size : 20.5 KiB (0%) Language : German Altyazı #11 Format : UTF-8 Codec ID/Info : UTF-8 Plain Altyazı Duration : 1 h 39 min Frame rate : 0.098 FPS Stream size : 19.1 KiB (0%) Language : Italian Altyazı #12 Format : UTF-8 Codec ID/Info : UTF-8 Plain Altyazı Duration : 1 h 40 min Frame rate : 0.161 FPS Stream size : 30.4 KiB (0%) Language : Japanese Altyazı #13 Format : UTF-8 Codec ID/Info : UTF-8 Plain Altyazı Duration : 1 h 39 min Frame rate : 0.138 FPS Stream size : 20.3 KiB (0%) Language : Korean Altyazı #14 Format : UTF-8 Codec ID/Info : UTF-8 Plain Altyazı Duration : 1 h 39 min Frame rate : 0.115 FPS Stream size : 21.6 KiB (0%) Language : Portuguese Altyazı #15 Format : UTF-8 Codec ID/Info : UTF-8 Plain Altyazı Duration : 1 h 39 min Frame rate : 0.139 FPS Stream size : 25.0 KiB (0%) Language : Spanish Altyazı #16 Format : UTF-8 Codec ID/Info : UTF-8 Plain Altyazı Duration : 1 h 39 min Frame rate : 0.138 FPS Stream size : 21.2 KiB (0%) Language : Türkçe Altyazı #17 Format : UTF-8 Codec ID/Info : UTF-8 Plain Altyazı Duration : 1 h 42 min Frame rate : 0.310 FPS Stream size : 89.7 KiB (0%) Language : English İNDİRME LİNKİ https://iniyor.net/tb/7171f5c6b022b14d62cda7e459092c71/Ai.no.korida.1976.AKA.In.The.Realm.of.the.Senses.1080p.Blu-ray.Remux.AVC.FLAC1.0-CiNEPHiLES.mkv.html SuperUp turbobit.net, gofile.io, doodrive.com, megaup.net, send.cm, 1fichier.com, mixdrop.ag, pixeldrain.com, streamtape.com, rapidgator.net
    0 Cevap | 0 Görüntüleme
  • SuperUp nickli üyeye ait kullanıcı resmi (Avatar)
    2 Saat önce
    Boş Oda - Vacancy (2007) 1080p REMUX Türkçe Altyazılı IMDB LİNKİ Tür: Korku, Gerilim Son derece mutsuz bir evlilikleri olan David ve Amy, boşanmaya karar vermişlerdir. Araları son derece açık olan karı koca, birlikte yaşayacakları hayatlarının en kabus dolu yolculuğuna çıkmak üzeredirler.Arabaları ıssız bir taşra otoyolunda bozulunca, yaşlı ve kendi halinde bir adamın işlettiği ıssız bir otelde konaklamak zorunda kalırlar. Fakat odalarına yerleştiklerinde bulacakları kasetler, kabusun ilk adımı olacaktır. Kasette korkunç işkence görüntüleri vardır ve kolayca girdikleri bu otelden çıkmanın o kadar da kolay olmadığını artık anlamışlardır.2003 tarihli Kontroll filmi ile uluslararası festivallerde oldukça dikkat çeken 1973 doğumlu yönetmen Nimrod Antal'ın dördüncü yönetmenlik deneyimi olan Boş Oda, gerilimli dakikalar vaad ediyor. Oyuncular: Kate Beckinsale, Luke Wilson, Frank Whaley, Ethan Embry, Scott G. Anderson, Mark Casella, David Doty, Norm Compton, FİLM TANITIM LİNKİ FİLMDEN KARELER General Format : Matroska File size : 18.5 GiB Duration : 1 h 25 min Overall bit rate mode : Variable Overall bit rate : 31.2 Mb/s Frame rate : 23.976 FPS Video Format : AVC Format/Info : Advanced Video Codec Duration : 1 h 25 min Width : 1 920 pixels Height : 1 080 pixels Frame rate : 23.976 (24000/1001) FPS Stream size : 15.5 GiB (84%) Ses 1 Format : AC-3 Format/Info : Audio Coding 3 Duration : 1 h 25 min Channel(s) : 2 channels Frame rate : 31.250 FPS (1536 SPF) Stream size : 136 MiB (1%) Language : German Ses 2 Format : DTS XLL Commercial name : DTS-HD Master Audio Duration : 1 h 25 min Channel(s) : 6 channels Frame rate : 93.750 FPS (512 SPF) Stream size : 1.30 GiB (7%) Language : English Ses 3 Format : AC-3 Format/Info : Audio Coding 3 Duration : 1 h 25 min Channel(s) : 6 channels Frame rate : 31.250 FPS (1536 SPF) Stream size : 390 MiB (2%) Language : English Ses 4 Format : AC-3 Format/Info : Audio Coding 3 Duration : 1 h 25 min Channel(s) : 6 channels Frame rate : 31.250 FPS (1536 SPF) Stream size : 390 MiB (2%) Language : Czech Ses 5 Format : AC-3 Format/Info : Audio Coding 3 Duration : 1 h 25 min Channel(s) : 6 channels Frame rate : 31.250 FPS (1536 SPF) Stream size : 390 MiB (2%) Language : Hungarian Ses 6 Format : AC-3 Format/Info : Audio Coding 3 Duration : 1 h 25 min Channel(s) : 6 channels Frame rate : 31.250 FPS (1536 SPF) Stream size : 390 MiB (2%) Language : Polish Altyazı #1 Format : PGS Duration : 1 h 16 min Frame rate : 0.299 FPS Stream size : 5.55 MiB (0%) Language : English Altyazı #2 Format : PGS Duration : 1 h 20 min Frame rate : 0.354 FPS Stream size : 3.94 MiB (0%) Language : English Altyazı #3 Format : PGS Duration : 1 h 16 min Frame rate : 0.292 FPS Stream size : 5.04 MiB (0%) Language : Dutch Altyazı #4 Format : PGS Duration : 1 h 19 min Frame rate : 0.319 FPS Stream size : 8.45 MiB (0%) Language : Russian Altyazı #5 Format : PGS Duration : 1 h 20 min Frame rate : 0.237 FPS Stream size : 4.39 MiB (0%) Language : Bulgarian Altyazı #6 Format : PGS Duration : 1 h 16 min Frame rate : 0.300 FPS Stream size : 4.76 MiB (0%) Language : Croatian Altyazı #7 Format : PGS Duration : 1 h 16 min Frame rate : 0.299 FPS Stream size : 4.72 MiB (0%) Language : Czech Altyazı #8 Format : PGS Duration : 1 h 21 min Frame rate : 0.234 FPS Stream size : 4.15 MiB (0%) Language : Danish Altyazı #9 Format : PGS Duration : 1 h 16 min Frame rate : 0.299 FPS Stream size : 4.46 MiB (0%) Language : Finnish Altyazı #10 Format : PGS Duration : 1 h 21 min Frame rate : 0.282 FPS Stream size : 5.28 MiB (0%) Language : Greek Altyazı #11 Format : PGS Duration : 1 h 16 min Frame rate : 0.300 FPS Stream size : 4.78 MiB (0%) Language : Hebrew Altyazı #12 Format : PGS Duration : 1 h 16 min Frame rate : 0.300 FPS Stream size : 5.16 MiB (0%) Language : Hindi Altyazı #13 Format : PGS Duration : 1 h 16 min Frame rate : 0.286 FPS Stream size : 4.11 MiB (0%) Language : Hungarian Altyazı #14 Format : PGS Duration : 1 h 16 min Frame rate : 0.282 FPS Stream size : 4.86 MiB (0%) Language : Icelandic Altyazı #15 Format : PGS Duration : 1 h 16 min Frame rate : 0.300 FPS Stream size : 4.99 MiB (0%) Language : Norwegian Altyazı #16 Format : PGS Duration : 1 h 21 min Frame rate : 0.282 FPS Stream size : 4.88 MiB (0%) Language : Polish Altyazı #17 Format : PGS Duration : 1 h 20 min Frame rate : 0.286 FPS Stream size : 5.10 MiB (0%) Language : Romanian Altyazı #18 Format : PGS Duration : 1 h 16 min Frame rate : 0.299 FPS Stream size : 4.52 MiB (0%) Language : Slovenian Altyazı #19 Format : PGS Duration : 1 h 16 min Frame rate : 0.220 FPS Stream size : 4.08 MiB (0%) Language : Swedish Altyazı #20 Format : PGS Duration : 1 h 16 min Frame rate : 0.295 FPS Stream size : 5.11 MiB (0%) Language : Türkçe İNDİRME LİNKİ https://iniyor.net/tb/0abb192b747525e50cabeb89a3b2a84a/Motel.2007.German.AC3.Dubbed.DL.UK.BD.1080p.Remux-MagicMenne.mkv.html SuperUp turbobit.net, gofile.io, doodrive.com, megaup.net, send.cm, 1fichier.com, mixdrop.ag, pixeldrain.com, streamtape.com, rapidgator.net
    0 Cevap | 0 Görüntüleme
  • SuperUp nickli üyeye ait kullanıcı resmi (Avatar)
    2 Saat önce
    Boş Oda - Vacancy (2007) 1080p REMUX Türkçe Altyazılı IMDB LİNKİ Tür: Korku, Gerilim Son derece mutsuz bir evlilikleri olan David ve Amy, boşanmaya karar vermişlerdir. Araları son derece açık olan karı koca, birlikte yaşayacakları hayatlarının en kabus dolu yolculuğuna çıkmak üzeredirler.Arabaları ıssız bir taşra otoyolunda bozulunca, yaşlı ve kendi halinde bir adamın işlettiği ıssız bir otelde konaklamak zorunda kalırlar. Fakat odalarına yerleştiklerinde bulacakları kasetler, kabusun ilk adımı olacaktır. Kasette korkunç işkence görüntüleri vardır ve kolayca girdikleri bu otelden çıkmanın o kadar da kolay olmadığını artık anlamışlardır.2003 tarihli Kontroll filmi ile uluslararası festivallerde oldukça dikkat çeken 1973 doğumlu yönetmen Nimrod Antal'ın dördüncü yönetmenlik deneyimi olan Boş Oda, gerilimli dakikalar vaad ediyor. Oyuncular: Kate Beckinsale, Luke Wilson, Frank Whaley, Ethan Embry, Scott G. Anderson, Mark Casella, David Doty, Norm Compton, FİLM TANITIM LİNKİ FİLMDEN KARELER General Format : Matroska File size : 18.5 GiB Duration : 1 h 25 min Overall bit rate mode : Variable Overall bit rate : 31.2 Mb/s Frame rate : 23.976 FPS Video Format : AVC Format/Info : Advanced Video Codec Duration : 1 h 25 min Width : 1 920 pixels Height : 1 080 pixels Frame rate : 23.976 (24000/1001) FPS Stream size : 15.5 GiB (84%) Ses 1 Format : AC-3 Format/Info : Audio Coding 3 Duration : 1 h 25 min Channel(s) : 2 channels Frame rate : 31.250 FPS (1536 SPF) Stream size : 136 MiB (1%) Language : German Ses 2 Format : DTS XLL Commercial name : DTS-HD Master Audio Duration : 1 h 25 min Channel(s) : 6 channels Frame rate : 93.750 FPS (512 SPF) Stream size : 1.30 GiB (7%) Language : English Ses 3 Format : AC-3 Format/Info : Audio Coding 3 Duration : 1 h 25 min Channel(s) : 6 channels Frame rate : 31.250 FPS (1536 SPF) Stream size : 390 MiB (2%) Language : English Ses 4 Format : AC-3 Format/Info : Audio Coding 3 Duration : 1 h 25 min Channel(s) : 6 channels Frame rate : 31.250 FPS (1536 SPF) Stream size : 390 MiB (2%) Language : Czech Ses 5 Format : AC-3 Format/Info : Audio Coding 3 Duration : 1 h 25 min Channel(s) : 6 channels Frame rate : 31.250 FPS (1536 SPF) Stream size : 390 MiB (2%) Language : Hungarian Ses 6 Format : AC-3 Format/Info : Audio Coding 3 Duration : 1 h 25 min Channel(s) : 6 channels Frame rate : 31.250 FPS (1536 SPF) Stream size : 390 MiB (2%) Language : Polish Altyazı #1 Format : PGS Duration : 1 h 16 min Frame rate : 0.299 FPS Stream size : 5.55 MiB (0%) Language : English Altyazı #2 Format : PGS Duration : 1 h 20 min Frame rate : 0.354 FPS Stream size : 3.94 MiB (0%) Language : English Altyazı #3 Format : PGS Duration : 1 h 16 min Frame rate : 0.292 FPS Stream size : 5.04 MiB (0%) Language : Dutch Altyazı #4 Format : PGS Duration : 1 h 19 min Frame rate : 0.319 FPS Stream size : 8.45 MiB (0%) Language : Russian Altyazı #5 Format : PGS Duration : 1 h 20 min Frame rate : 0.237 FPS Stream size : 4.39 MiB (0%) Language : Bulgarian Altyazı #6 Format : PGS Duration : 1 h 16 min Frame rate : 0.300 FPS Stream size : 4.76 MiB (0%) Language : Croatian Altyazı #7 Format : PGS Duration : 1 h 16 min Frame rate : 0.299 FPS Stream size : 4.72 MiB (0%) Language : Czech Altyazı #8 Format : PGS Duration : 1 h 21 min Frame rate : 0.234 FPS Stream size : 4.15 MiB (0%) Language : Danish Altyazı #9 Format : PGS Duration : 1 h 16 min Frame rate : 0.299 FPS Stream size : 4.46 MiB (0%) Language : Finnish Altyazı #10 Format : PGS Duration : 1 h 21 min Frame rate : 0.282 FPS Stream size : 5.28 MiB (0%) Language : Greek Altyazı #11 Format : PGS Duration : 1 h 16 min Frame rate : 0.300 FPS Stream size : 4.78 MiB (0%) Language : Hebrew Altyazı #12 Format : PGS Duration : 1 h 16 min Frame rate : 0.300 FPS Stream size : 5.16 MiB (0%) Language : Hindi Altyazı #13 Format : PGS Duration : 1 h 16 min Frame rate : 0.286 FPS Stream size : 4.11 MiB (0%) Language : Hungarian Altyazı #14 Format : PGS Duration : 1 h 16 min Frame rate : 0.282 FPS Stream size : 4.86 MiB (0%) Language : Icelandic Altyazı #15 Format : PGS Duration : 1 h 16 min Frame rate : 0.300 FPS Stream size : 4.99 MiB (0%) Language : Norwegian Altyazı #16 Format : PGS Duration : 1 h 21 min Frame rate : 0.282 FPS Stream size : 4.88 MiB (0%) Language : Polish Altyazı #17 Format : PGS Duration : 1 h 20 min Frame rate : 0.286 FPS Stream size : 5.10 MiB (0%) Language : Romanian Altyazı #18 Format : PGS Duration : 1 h 16 min Frame rate : 0.299 FPS Stream size : 4.52 MiB (0%) Language : Slovenian Altyazı #19 Format : PGS Duration : 1 h 16 min Frame rate : 0.220 FPS Stream size : 4.08 MiB (0%) Language : Swedish Altyazı #20 Format : PGS Duration : 1 h 16 min Frame rate : 0.295 FPS Stream size : 5.11 MiB (0%) Language : Türkçe İNDİRME LİNKİ https://iniyor.net/tb/0abb192b747525e50cabeb89a3b2a84a/Motel.2007.German.AC3.Dubbed.DL.UK.BD.1080p.Remux-MagicMenne.mkv.html SuperUp turbobit.net, gofile.io, doodrive.com, megaup.net, send.cm, 1fichier.com, mixdrop.ag, pixeldrain.com, streamtape.com, rapidgator.net
    0 Cevap | 1 Görüntüleme
  • SuperUp nickli üyeye ait kullanıcı resmi (Avatar)
    2 Saat önce
    Buz Devri 3: Dinozorların Şafağı - Ice Age: Dawn of the Dinosaurs (2009) 2160p DUAL DSNP WEB-DL H265 HDR DDP5.1 - TURG IMDB LİNKİ Tür: Animasyon, Komedi, Aile, Macera Scrat yine asla ele geçiremediği meşe palamudunun, (ve bu sefer belki aşkın da) peşindedir. Manny ve Ellie yavruları minik mamutun doğmasını beklemektedirler. Miskin Sid, bulduğu dinozor yumurtalarından çıkan yavrularla kendine geçici bir aile kurar fakat bu, Sid için pek de iyi olmayacaktır. Kılıç dişli kaplan Diego da arkadaşlarıyla ilişkisinde çok yumuşak bir tavır sergileyip sergilemediğini sorgulamaktadır. Sid'i başına aldığı belalardan kurtarmak için çıktıkları yolculukta kendilerini birden gizemli bir yeraltı dünyasında bulan ekip, karşılaştıkları dinozorlar, aklını kaçırmış gibi duran değişik hayvan türleri, yeni bir bitki örtüsü ve tek gözlü, acımasız dinozor avcısı gelincik Buck ile heyecan dolu ve bir o kadar da eğlenceli bir maceranın ortasında kalırlar. Oyuncular: Ray Romano, John Leguizamo, Denis Leary, Queen Latifah, Simon Pegg, Seann William Scott, Josh Peck, Chris Wedge, Karen Disher, Kristen Wiig FİLM TANITIM LİNKİ FİLMDEN KARELER General Format : Matroska File size : 10.3 GiB Duration : 1 h 34 min Overall bit rate : 15.7 Mb/s Frame rate : 23.976 FPS Video Format : HEVC Format/Info : High Efficiency Video Coding Duration : 1 h 34 min Width : 3 840 pixels Height : 2 160 pixels Frame rate : 23.976 (24000/1001) FPS Stream size : 9.98 GiB (97%) Ses 1 Format : E-AC-3 Duration : 1 h 34 min Channel(s) : 6 channels Frame rate : 31.250 FPS (1536 SPF) Stream size : 172 MiB (2%) Language : Türkçe Ses 2 Format : E-AC-3 Duration : 1 h 34 min Channel(s) : 6 channels Frame rate : 31.250 FPS (1536 SPF) Stream size : 172 MiB (2%) Language : English Altyazı #1 Format : UTF-8 Codec ID/Info : UTF-8 Plain Altyazı Duration : 1 h 20 min Frame rate : 0.168 FPS Stream size : 25.9 KiB (0%) Language : Türkçe Altyazı #2 Format : UTF-8 Codec ID/Info : UTF-8 Plain Altyazı Duration : 1 h 33 min Frame rate : 0.379 FPS Stream size : 43.9 KiB (0%) Language : English İNDİRME LİNKİ https://iniyor.net/tb/d584f6caed8194b9c53eecdfa82a3f8d/Ice.Age.Dawn.Of.The.Dinosaurs.2009.2160p.DSNP.WEB-DL.DDP5.1.HDR.H.265-TURG.mkv.html SuperUp turbobit.net, gofile.io, doodrive.com, megaup.net, send.cm, 1fichier.com, mixdrop.ag, pixeldrain.com, streamtape.com, rapidgator.net
    0 Cevap | 0 Görüntüleme
  • SuperUp nickli üyeye ait kullanıcı resmi (Avatar)
    2 Saat önce
    Buz Devri 3: Dinozorların Şafağı - Ice Age: Dawn of the Dinosaurs (2009) 2160p DUAL DSNP WEB-DL H265 HDR DDP5.1 - TURG IMDB LİNKİ Tür: Animasyon, Komedi, Aile, Macera Scrat yine asla ele geçiremediği meşe palamudunun, (ve bu sefer belki aşkın da) peşindedir. Manny ve Ellie yavruları minik mamutun doğmasını beklemektedirler. Miskin Sid, bulduğu dinozor yumurtalarından çıkan yavrularla kendine geçici bir aile kurar fakat bu, Sid için pek de iyi olmayacaktır. Kılıç dişli kaplan Diego da arkadaşlarıyla ilişkisinde çok yumuşak bir tavır sergileyip sergilemediğini sorgulamaktadır. Sid'i başına aldığı belalardan kurtarmak için çıktıkları yolculukta kendilerini birden gizemli bir yeraltı dünyasında bulan ekip, karşılaştıkları dinozorlar, aklını kaçırmış gibi duran değişik hayvan türleri, yeni bir bitki örtüsü ve tek gözlü, acımasız dinozor avcısı gelincik Buck ile heyecan dolu ve bir o kadar da eğlenceli bir maceranın ortasında kalırlar. Oyuncular: Ray Romano, John Leguizamo, Denis Leary, Queen Latifah, Simon Pegg, Seann William Scott, Josh Peck, Chris Wedge, Karen Disher, Kristen Wiig FİLM TANITIM LİNKİ FİLMDEN KARELER General Format : Matroska File size : 10.3 GiB Duration : 1 h 34 min Overall bit rate : 15.7 Mb/s Frame rate : 23.976 FPS Video Format : HEVC Format/Info : High Efficiency Video Coding Duration : 1 h 34 min Width : 3 840 pixels Height : 2 160 pixels Frame rate : 23.976 (24000/1001) FPS Stream size : 9.98 GiB (97%) Ses 1 Format : E-AC-3 Duration : 1 h 34 min Channel(s) : 6 channels Frame rate : 31.250 FPS (1536 SPF) Stream size : 172 MiB (2%) Language : Türkçe Ses 2 Format : E-AC-3 Duration : 1 h 34 min Channel(s) : 6 channels Frame rate : 31.250 FPS (1536 SPF) Stream size : 172 MiB (2%) Language : English Altyazı #1 Format : UTF-8 Codec ID/Info : UTF-8 Plain Altyazı Duration : 1 h 20 min Frame rate : 0.168 FPS Stream size : 25.9 KiB (0%) Language : Türkçe Altyazı #2 Format : UTF-8 Codec ID/Info : UTF-8 Plain Altyazı Duration : 1 h 33 min Frame rate : 0.379 FPS Stream size : 43.9 KiB (0%) Language : English İNDİRME LİNKİ https://iniyor.net/tb/d584f6caed8194b9c53eecdfa82a3f8d/Ice.Age.Dawn.Of.The.Dinosaurs.2009.2160p.DSNP.WEB-DL.DDP5.1.HDR.H.265-TURG.mkv.html SuperUp turbobit.net, gofile.io, doodrive.com, megaup.net, send.cm, 1fichier.com, mixdrop.ag, pixeldrain.com, streamtape.com, rapidgator.net
    0 Cevap | 2 Görüntüleme
  • SuperUp nickli üyeye ait kullanıcı resmi (Avatar)
    2 Saat önce
    Olmadı Kaçarız (2022) Sansürsüz 1080p AMZN WEB-DL H264 - HdT IMDB LİNKİ Tür: Komedi Eğlenceli video içerikleri hazırlayan Yakın arkadaş Umut ve Emre sosyal medya fenomenidir. Davet üzerine gittikleri tatil yöresinde kendilerine sponsor olan otelin sahibi Ezgi ile arkadaş olurlar. Ezgi'nin babasının ölümü ve otelin zor durumuna üzülen Umut ve Emre otele ortak olur ve sosyal medyayı kullanarak otelin işlerini düzeltmeyi teklif ederler. Kendisi de internet fenomeni olmaya çalışan erkek hemşire Serhat, Umut ve Emre'nin kendisini küçümsemesiyle öfkelenir. İntikam hırsı ile Umut ve Emre'nin başlarına olmadık işler açar. Umut ve Emre Otele müşteri çekmek ve tanıtımını yapmak amacıyla balayı çiftlerini davet etmeleriyle olaylar başlar. Oyuncular: Halil İbrahim Göker, Ezgi Gizem, Gökhan Eksen, Onat Bulut, Caner Nalbantoğlu, Erkan Nurhan, FİLM TANITIM LİNKİ FİLMDEN KARELER General Format : Matroska File size : 6.93 GiB Duration : 1 h 43 min Overall bit rate : 9 590 kb/s Frame rate : 25.000 FPS Video Format : AVC Format/Info : Advanced Video Codec Duration : 1 h 43 min Width : 1 920 pixels Height : 1 040 pixels Frame rate : 25.000 FPS Stream size : 6.37 GiB (92%) Language : Türkçe Ses 1 Format : E-AC-3 Duration : 1 h 43 min Channel(s) : 6 channels Frame rate : 31.250 FPS (1536 SPF) Stream size : 474 MiB (7%) Language : Türkçe Ses 2 Format : AAC LC Format/Info : Advanced Audio Codec Low Complexity Duration : 1 h 43 min Channel(s) : 2 channels Frame rate : 46.875 FPS (1024 SPF) Stream size : 94.7 MiB (1%) Language : Türkçe Altyazı #1 Format : UTF-8 Codec ID/Info : UTF-8 Plain Altyazı Duration : 41 min 10 s Frame rate : 0.002 FPS Stream size : 464 Bytes (0%) Altyazı #2 Format : UTF-8 Codec ID/Info : UTF-8 Plain Altyazı Duration : 1 h 39 min Frame rate : 0.372 FPS Stream size : 67.7 KiB (0%) Language : English Altyazı #3 Format : UTF-8 Codec ID/Info : UTF-8 Plain Altyazı Duration : 32 min 18 s Frame rate : 0.027 FPS Stream size : 1.48 KiB (0%) Language : Türkçe İNDİRME LİNKİ https://iniyor.net/tb/546693a07697c18b51113e847e45355f/Olmad%C4%B1%20Ka%C3%A7ar%C4%B1z%202022%20Yerli%20Sans%C3%BCrs%C3%BCz%201080p%20AMZN%20WEB-DL%20H264%20EAC3%205.1%20-%20HdT.mkv.html SuperUp turbobit.net, gofile.io, doodrive.com, megaup.net, send.cm, 1fichier.com, mixdrop.ag, pixeldrain.com, streamtape.com, rapidgator.net
    0 Cevap | 0 Görüntüleme
  • SuperUp nickli üyeye ait kullanıcı resmi (Avatar)
    2 Saat önce
    Olmadı Kaçarız (2022) Sansürsüz 1080p AMZN WEB-DL H264 - HdT IMDB LİNKİ Tür: Komedi Eğlenceli video içerikleri hazırlayan Yakın arkadaş Umut ve Emre sosyal medya fenomenidir. Davet üzerine gittikleri tatil yöresinde kendilerine sponsor olan otelin sahibi Ezgi ile arkadaş olurlar. Ezgi'nin babasının ölümü ve otelin zor durumuna üzülen Umut ve Emre otele ortak olur ve sosyal medyayı kullanarak otelin işlerini düzeltmeyi teklif ederler. Kendisi de internet fenomeni olmaya çalışan erkek hemşire Serhat, Umut ve Emre'nin kendisini küçümsemesiyle öfkelenir. İntikam hırsı ile Umut ve Emre'nin başlarına olmadık işler açar. Umut ve Emre Otele müşteri çekmek ve tanıtımını yapmak amacıyla balayı çiftlerini davet etmeleriyle olaylar başlar. Oyuncular: Halil İbrahim Göker, Ezgi Gizem, Gökhan Eksen, Onat Bulut, Caner Nalbantoğlu, Erkan Nurhan, FİLM TANITIM LİNKİ FİLMDEN KARELER General Format : Matroska File size : 6.93 GiB Duration : 1 h 43 min Overall bit rate : 9 590 kb/s Frame rate : 25.000 FPS Video Format : AVC Format/Info : Advanced Video Codec Duration : 1 h 43 min Width : 1 920 pixels Height : 1 040 pixels Frame rate : 25.000 FPS Stream size : 6.37 GiB (92%) Language : Türkçe Ses 1 Format : E-AC-3 Duration : 1 h 43 min Channel(s) : 6 channels Frame rate : 31.250 FPS (1536 SPF) Stream size : 474 MiB (7%) Language : Türkçe Ses 2 Format : AAC LC Format/Info : Advanced Audio Codec Low Complexity Duration : 1 h 43 min Channel(s) : 2 channels Frame rate : 46.875 FPS (1024 SPF) Stream size : 94.7 MiB (1%) Language : Türkçe Altyazı #1 Format : UTF-8 Codec ID/Info : UTF-8 Plain Altyazı Duration : 41 min 10 s Frame rate : 0.002 FPS Stream size : 464 Bytes (0%) Altyazı #2 Format : UTF-8 Codec ID/Info : UTF-8 Plain Altyazı Duration : 1 h 39 min Frame rate : 0.372 FPS Stream size : 67.7 KiB (0%) Language : English Altyazı #3 Format : UTF-8 Codec ID/Info : UTF-8 Plain Altyazı Duration : 32 min 18 s Frame rate : 0.027 FPS Stream size : 1.48 KiB (0%) Language : Türkçe İNDİRME LİNKİ https://iniyor.net/tb/546693a07697c18b51113e847e45355f/Olmad%C4%B1%20Ka%C3%A7ar%C4%B1z%202022%20Yerli%20Sans%C3%BCrs%C3%BCz%201080p%20AMZN%20WEB-DL%20H264%20EAC3%205.1%20-%20HdT.mkv.html SuperUp turbobit.net, gofile.io, doodrive.com, megaup.net, send.cm, 1fichier.com, mixdrop.ag, pixeldrain.com, streamtape.com, rapidgator.net
    0 Cevap | 5 Görüntüleme
  • SuperUp nickli üyeye ait kullanıcı resmi (Avatar)
    2 Saat önce
    House of the Dragon S01 1080p DUAL BluRay REMUX TrueHD AVC Atmos - HdT IMDB LİNKİ Tür: Dram, George R.R. Martin'in "Fire & Blood" adlı eserinden uyarlanan ve Game of Thrones'taki olaylardan 200 yıl öncesini konu alan dizi, Targaryen Hanesi'nin gücünün zirvesinde olduğu dönemde bir iç veraset savaşını anlatıyor. FİLMDEN KARELER General Format : Matroska File size : 16.7 GiB Duration : 1 h 5 min Overall bit rate mode : Variable Overall bit rate : 36.5 Mb/s Frame rate : 23.976 FPS Video Format : AVC Format/Info : Advanced Video Codec Duration : 1 h 5 min Width : 1 920 pixels Height : 1 080 pixels Frame rate : 23.976 (24000/1001) FPS Stream size : 14.1 GiB (85%) Language : English Ses 1 Format : AC-3 Format/Info : Audio Coding 3 Duration : 1 h 5 min Channel(s) : 6 channels Frame rate : 31.250 FPS (1536 SPF) Stream size : 180 MiB (1%) Language : Türkçe Ses 2 Format : MLP FBA 16-ch Duration : 1 h 5 min Channel(s) : 8 channels Frame rate : 1 200.000 FPS (40 SPF) Stream size : 1.26 GiB (8%) Language : English Ses 3 Format : AC-3 Format/Info : Audio Coding 3 Duration : 1 h 5 min Channel(s) : 6 channels Frame rate : 31.250 FPS (1536 SPF) Stream size : 210 MiB (1%) Language : English Ses 4 Format : AC-3 Format/Info : Audio Coding 3 Duration : 1 h 5 min Channel(s) : 6 channels Frame rate : 31.250 FPS (1536 SPF) Stream size : 300 MiB (2%) Language : French Ses 5 Format : AC-3 Format/Info : Audio Coding 3 Duration : 1 h 5 min Channel(s) : 6 channels Frame rate : 31.250 FPS (1536 SPF) Stream size : 300 MiB (2%) Language : German Ses 6 Format : AC-3 Format/Info : Audio Coding 3 Duration : 1 h 5 min Channel(s) : 6 channels Frame rate : 31.250 FPS (1536 SPF) Stream size : 300 MiB (2%) Language : Spanish Altyazı #1 Format : UTF-8 Codec ID/Info : UTF-8 Plain Altyazı Duration : 40 min 31 s Frame rate : 0.009 FPS Stream size : 908 Bytes (0%) Language : Türkçe Altyazı #2 Format : UTF-8 Codec ID/Info : UTF-8 Plain Altyazı Duration : 1 h 2 min Frame rate : 0.164 FPS Stream size : 25.4 KiB (0%) Language : Türkçe Altyazı #3 Format : PGS Duration : 1 h 3 min Frame rate : 0.471 FPS Stream size : 17.3 MiB (0%) Language : English Altyazı #4 Format : PGS Duration : 1 h 5 min Frame rate : 0.356 FPS Stream size : 12.9 MiB (0%) Language : French Altyazı #5 Format : PGS Duration : 1 h 3 min Frame rate : 0.480 FPS Stream size : 18.6 MiB (0%) Language : German Altyazı #6 Format : PGS Duration : 1 h 2 min Frame rate : 0.315 FPS Stream size : 12.9 MiB (0%) Language : Dutch Altyazı #7 Format : PGS Duration : 1 h 2 min Frame rate : 0.358 FPS Stream size : 14.8 MiB (0%) Language : Spanish Altyazı #8 Format : PGS Duration : 40 min 31 s Frame rate : 0.020 FPS Stream size : 484 KiB (0%) Language : French Altyazı #9 Format : PGS Duration : 40 min 32 s Frame rate : 0.019 FPS Stream size : 529 KiB (0%) Language : German Altyazı #10 Format : PGS Duration : 40 min 31 s Frame rate : 0.020 FPS Stream size : 494 KiB (0%) Language : Spanish BÖLÜM 001 BÖLÜM 002 BÖLÜM 003 BÖLÜM 004 BÖLÜM 005 BÖLÜM 006 BÖLÜM 007 BÖLÜM 008 BÖLÜM 009 BÖLÜM 010
    0 Cevap | 1 Görüntüleme
  • SuperUp nickli üyeye ait kullanıcı resmi (Avatar)
    2 Saat önce
    House of the Dragon S01 1080p DUAL BluRay REMUX TrueHD AVC Atmos - HdT IMDB LİNKİ Tür: Dram, George R.R. Martin'in "Fire & Blood" adlı eserinden uyarlanan ve Game of Thrones'taki olaylardan 200 yıl öncesini konu alan dizi, Targaryen Hanesi'nin gücünün zirvesinde olduğu dönemde bir iç veraset savaşını anlatıyor. FİLMDEN KARELER General Format : Matroska File size : 16.7 GiB Duration : 1 h 5 min Overall bit rate mode : Variable Overall bit rate : 36.5 Mb/s Frame rate : 23.976 FPS Video Format : AVC Format/Info : Advanced Video Codec Duration : 1 h 5 min Width : 1 920 pixels Height : 1 080 pixels Frame rate : 23.976 (24000/1001) FPS Stream size : 14.1 GiB (85%) Language : English Ses 1 Format : AC-3 Format/Info : Audio Coding 3 Duration : 1 h 5 min Channel(s) : 6 channels Frame rate : 31.250 FPS (1536 SPF) Stream size : 180 MiB (1%) Language : Türkçe Ses 2 Format : MLP FBA 16-ch Duration : 1 h 5 min Channel(s) : 8 channels Frame rate : 1 200.000 FPS (40 SPF) Stream size : 1.26 GiB (8%) Language : English Ses 3 Format : AC-3 Format/Info : Audio Coding 3 Duration : 1 h 5 min Channel(s) : 6 channels Frame rate : 31.250 FPS (1536 SPF) Stream size : 210 MiB (1%) Language : English Ses 4 Format : AC-3 Format/Info : Audio Coding 3 Duration : 1 h 5 min Channel(s) : 6 channels Frame rate : 31.250 FPS (1536 SPF) Stream size : 300 MiB (2%) Language : French Ses 5 Format : AC-3 Format/Info : Audio Coding 3 Duration : 1 h 5 min Channel(s) : 6 channels Frame rate : 31.250 FPS (1536 SPF) Stream size : 300 MiB (2%) Language : German Ses 6 Format : AC-3 Format/Info : Audio Coding 3 Duration : 1 h 5 min Channel(s) : 6 channels Frame rate : 31.250 FPS (1536 SPF) Stream size : 300 MiB (2%) Language : Spanish Altyazı #1 Format : UTF-8 Codec ID/Info : UTF-8 Plain Altyazı Duration : 40 min 31 s Frame rate : 0.009 FPS Stream size : 908 Bytes (0%) Language : Türkçe Altyazı #2 Format : UTF-8 Codec ID/Info : UTF-8 Plain Altyazı Duration : 1 h 2 min Frame rate : 0.164 FPS Stream size : 25.4 KiB (0%) Language : Türkçe Altyazı #3 Format : PGS Duration : 1 h 3 min Frame rate : 0.471 FPS Stream size : 17.3 MiB (0%) Language : English Altyazı #4 Format : PGS Duration : 1 h 5 min Frame rate : 0.356 FPS Stream size : 12.9 MiB (0%) Language : French Altyazı #5 Format : PGS Duration : 1 h 3 min Frame rate : 0.480 FPS Stream size : 18.6 MiB (0%) Language : German Altyazı #6 Format : PGS Duration : 1 h 2 min Frame rate : 0.315 FPS Stream size : 12.9 MiB (0%) Language : Dutch Altyazı #7 Format : PGS Duration : 1 h 2 min Frame rate : 0.358 FPS Stream size : 14.8 MiB (0%) Language : Spanish Altyazı #8 Format : PGS Duration : 40 min 31 s Frame rate : 0.020 FPS Stream size : 484 KiB (0%) Language : French Altyazı #9 Format : PGS Duration : 40 min 32 s Frame rate : 0.019 FPS Stream size : 529 KiB (0%) Language : German Altyazı #10 Format : PGS Duration : 40 min 31 s Frame rate : 0.020 FPS Stream size : 494 KiB (0%) Language : Spanish BÖLÜM 001 BÖLÜM 002 BÖLÜM 003 BÖLÜM 004 BÖLÜM 005 BÖLÜM 006 BÖLÜM 007 BÖLÜM 008 BÖLÜM 009 BÖLÜM 010
    0 Cevap | 5 Görüntüleme
  • SuperUp nickli üyeye ait kullanıcı resmi (Avatar)
    2 Saat önce
    Buz Devri - Ice Age (2002) 2160p DUAL DSNP WEB-DL H265 HDR DDP5.1 - TURG IMDB LİNKİ Tür: Animasyon, Komedi, Aile, Macera Buzul çağı, dünyaya hüküm sürmeye başlamıştır. Bu ıssız ve korkunç dünyada bir başlarına olan zavallı hayvanlar, bir şekilde hayatta kalmanın yollarını aramaktadırlar. Uzun tüylü, kendi halinde bir mamut; karizmatik ve dişli bir kaplan ve muzır bir rakun, nasıl olduysa bu kaos esnasında bir araya gelmişlerdir. Bu üç birbirinden farklı türe mensup hayvanın odağında ise tek bir mevzu vardır. Buldukları küçük bebeği, insanlara ulaştırıp o bebeğin hayatını kurtarmak... Oyuncular: Ray Romano, John Leguizamo, Denis Leary, Goran Visnjic, Jack Black, Cedric the Entertainer, Stephen Root, Diedrich Bader, Alan Tudyk, Lorri Bagley FİLM TANITIM LİNKİ FİLMDEN KARELER General Format : Matroska File size : 8.41 GiB Duration : 1 h 21 min Overall bit rate : 14.8 Mb/s Frame rate : 23.976 FPS Video Format : HEVC Format/Info : High Efficiency Video Coding Duration : 1 h 21 min Width : 3 840 pixels Height : 2 160 pixels Frame rate : 23.976 (24000/1001) FPS Stream size : 8.12 GiB (97%) Ses 1 Format : E-AC-3 Duration : 1 h 21 min Channel(s) : 6 channels Frame rate : 31.250 FPS (1536 SPF) Stream size : 149 MiB (2%) Language : Türkçe Ses 2 Format : E-AC-3 Duration : 1 h 21 min Channel(s) : 6 channels Frame rate : 31.250 FPS (1536 SPF) Stream size : 149 MiB (2%) Language : English Altyazı #1 Format : UTF-8 Codec ID/Info : UTF-8 Plain Altyazı Duration : 1 h 17 min Frame rate : 0.116 FPS Stream size : 21.8 KiB (0%) Language : Türkçe Altyazı #2 Format : UTF-8 Codec ID/Info : UTF-8 Plain Altyazı Duration : 1 h 21 min Frame rate : 0.169 FPS Stream size : 27.2 KiB (0%) Language : English İNDİRME LİNKİ https://iniyor.net/tb/5dccc00dfe8d0674dc6387115d1a7a06/Ice.Age.2002.2160p.DSNP.WEB-DL.DDP5.1.HDR.H.265-TURG.mkv.html SuperUp turbobit.net, gofile.io, doodrive.com, megaup.net, send.cm, 1fichier.com, mixdrop.ag, pixeldrain.com, streamtape.com, rapidgator.net
    0 Cevap | 1 Görüntüleme
  • SuperUp nickli üyeye ait kullanıcı resmi (Avatar)
    2 Saat önce
    Buz Devri - Ice Age (2002) 2160p DUAL DSNP WEB-DL H265 HDR DDP5.1 - TURG IMDB LİNKİ Tür: Animasyon, Komedi, Aile, Macera Buzul çağı, dünyaya hüküm sürmeye başlamıştır. Bu ıssız ve korkunç dünyada bir başlarına olan zavallı hayvanlar, bir şekilde hayatta kalmanın yollarını aramaktadırlar. Uzun tüylü, kendi halinde bir mamut; karizmatik ve dişli bir kaplan ve muzır bir rakun, nasıl olduysa bu kaos esnasında bir araya gelmişlerdir. Bu üç birbirinden farklı türe mensup hayvanın odağında ise tek bir mevzu vardır. Buldukları küçük bebeği, insanlara ulaştırıp o bebeğin hayatını kurtarmak... Oyuncular: Ray Romano, John Leguizamo, Denis Leary, Goran Visnjic, Jack Black, Cedric the Entertainer, Stephen Root, Diedrich Bader, Alan Tudyk, Lorri Bagley FİLM TANITIM LİNKİ FİLMDEN KARELER General Format : Matroska File size : 8.41 GiB Duration : 1 h 21 min Overall bit rate : 14.8 Mb/s Frame rate : 23.976 FPS Video Format : HEVC Format/Info : High Efficiency Video Coding Duration : 1 h 21 min Width : 3 840 pixels Height : 2 160 pixels Frame rate : 23.976 (24000/1001) FPS Stream size : 8.12 GiB (97%) Ses 1 Format : E-AC-3 Duration : 1 h 21 min Channel(s) : 6 channels Frame rate : 31.250 FPS (1536 SPF) Stream size : 149 MiB (2%) Language : Türkçe Ses 2 Format : E-AC-3 Duration : 1 h 21 min Channel(s) : 6 channels Frame rate : 31.250 FPS (1536 SPF) Stream size : 149 MiB (2%) Language : English Altyazı #1 Format : UTF-8 Codec ID/Info : UTF-8 Plain Altyazı Duration : 1 h 17 min Frame rate : 0.116 FPS Stream size : 21.8 KiB (0%) Language : Türkçe Altyazı #2 Format : UTF-8 Codec ID/Info : UTF-8 Plain Altyazı Duration : 1 h 21 min Frame rate : 0.169 FPS Stream size : 27.2 KiB (0%) Language : English İNDİRME LİNKİ https://iniyor.net/tb/5dccc00dfe8d0674dc6387115d1a7a06/Ice.Age.2002.2160p.DSNP.WEB-DL.DDP5.1.HDR.H.265-TURG.mkv.html SuperUp turbobit.net, gofile.io, doodrive.com, megaup.net, send.cm, 1fichier.com, mixdrop.ag, pixeldrain.com, streamtape.com, rapidgator.net
    0 Cevap | 1 Görüntüleme
  • SuperUp nickli üyeye ait kullanıcı resmi (Avatar)
    2 Saat önce
    Buz Devri: Buck Wild'ın Maceraları - The Ice Age Adventures of Buck Wild (2022) 1080p DUAL DSNP WEB-DL x264 Atmos - HdT IMDB LİNKİ Tür: Animasyon, Komedi, Macera, Aile Heyecan arayan sıçan kardeşler Crash ve Eddie kendilerine ait bir yer bulmak için yola çıkar. Ancak onlar kendilerini yerin altındaki devasa bir mağara olan Kayıp Dünya'da kapana kısılmış bir halde bulur. Gelincik Buck Wild tarafından kurtarılan Crash ve Eddie, Kayıp Dünya'yı dinozor egemenliğinden kurtarmak için birlikte harekete geçer. Oyuncular: Simon Pegg, Vincent Tong, Aaron Harris, Utkarsh Ambudkar, Justina Machado, Sean Kenin, Dominique Jennings, Jake Green, Skyler Stone, Theodore Borders FİLM TANITIM LİNKİ FİLMDEN KARELER General Format : Matroska File size : 4.74 GiB Duration : 1 h 21 min Overall bit rate mode : Variable Overall bit rate : 8 371 kb/s Frame rate : 23.976 FPS Video Format : AVC Format/Info : Advanced Video Codec Duration : 1 h 21 min Width : 1 920 pixels Height : 1 080 pixels Frame rate : 23.976 (24000/1001) FPS Stream size : 4.16 GiB (88%) Ses 1 Format : E-AC-3 Duration : 1 h 21 min Channel(s) : 6 channels Frame rate : 31.250 FPS (1536 SPF) Stream size : 148 MiB (3%) Language : Türkçe Ses 2 Format : E-AC-3 JOC Duration : 1 h 21 min Channel(s) : 6 channels Frame rate : 31.250 FPS (1536 SPF) Stream size : 445 MiB (9%) Language : English Altyazı #1 Format : UTF-8 Codec ID/Info : UTF-8 Plain Altyazı Duration : 1 h 15 min Frame rate : 0.002 FPS Stream size : 156 Bytes (0%) Language : Türkçe Altyazı #2 Format : UTF-8 Codec ID/Info : UTF-8 Plain Altyazı Duration : 1 h 20 min Frame rate : 0.210 FPS Stream size : 33.2 KiB (0%) Language : Türkçe Altyazı #3 Format : UTF-8 Codec ID/Info : UTF-8 Plain Altyazı Duration : 1 h 17 min Frame rate : 0.230 FPS Stream size : 36.0 KiB (0%) Language : English Altyazı #4 Format : UTF-8 Codec ID/Info : UTF-8 Plain Altyazı Duration : 1 h 17 min Frame rate : 0.295 FPS Stream size : 43.4 KiB (0%) Language : English Altyazı #5 Format : UTF-8 Codec ID/Info : UTF-8 Plain Altyazı Duration : 1 h 20 min Frame rate : 0.211 FPS Stream size : 28.4 KiB (0%) Language : Danish Altyazı #6 Format : UTF-8 Codec ID/Info : UTF-8 Plain Altyazı Duration : 1 h 20 min Frame rate : 0.202 FPS Stream size : 32.2 KiB (0%) Language : German Altyazı #7 Format : UTF-8 Codec ID/Info : UTF-8 Plain Altyazı Duration : 1 h 20 min Frame rate : 0.187 FPS Stream size : 29.2 KiB (0%) Language : Spanish Altyazı #8 Format : UTF-8 Codec ID/Info : UTF-8 Plain Altyazı Duration : 1 h 20 min Frame rate : 0.191 FPS Stream size : 30.4 KiB (0%) Language : Spanish Altyazı #9 Format : UTF-8 Codec ID/Info : UTF-8 Plain Altyazı Duration : 1 h 20 min Frame rate : 0.210 FPS Stream size : 30.2 KiB (0%) Language : Finnish Altyazı #10 Format : UTF-8 Codec ID/Info : UTF-8 Plain Altyazı Duration : 1 h 20 min Frame rate : 0.199 FPS Stream size : 33.8 KiB (0%) Language : French Altyazı #11 Format : UTF-8 Codec ID/Info : UTF-8 Plain Altyazı Duration : 1 h 20 min Frame rate : 0.202 FPS Stream size : 27.6 KiB (0%) Language : Italian Altyazı #12 Format : UTF-8 Codec ID/Info : UTF-8 Plain Altyazı Duration : 1 h 20 min Frame rate : 0.206 FPS Stream size : 30.6 KiB (0%) Language : Japanese Altyazı #13 Format : UTF-8 Codec ID/Info : UTF-8 Plain Altyazı Duration : 1 h 20 min Frame rate : 0.210 FPS Stream size : 39.3 KiB (0%) Language : Korean Altyazı #14 Format : UTF-8 Codec ID/Info : UTF-8 Plain Altyazı Duration : 1 h 20 min Frame rate : 0.170 FPS Stream size : 28.1 KiB (0%) Language : Dutch Altyazı #15 Format : UTF-8 Codec ID/Info : UTF-8 Plain Altyazı Duration : 1 h 20 min Frame rate : 0.167 FPS Stream size : 29.9 KiB (0%) Language : Norwegian Altyazı #16 Format : UTF-8 Codec ID/Info : UTF-8 Plain Altyazı Duration : 1 h 20 min Frame rate : 0.183 FPS Stream size : 29.3 KiB (0%) Language : Portuguese Altyazı #17 Format : UTF-8 Codec ID/Info : UTF-8 Plain Altyazı Duration : 1 h 20 min Frame rate : 0.203 FPS Stream size : 31.2 KiB (0%) Language : Portuguese Altyazı #18 Format : UTF-8 Codec ID/Info : UTF-8 Plain Altyazı Duration : 1 h 20 min Frame rate : 0.210 FPS Stream size : 31.6 KiB (0%) Language : Swedish Altyazı #19 Format : UTF-8 Codec ID/Info : UTF-8 Plain Altyazı Duration : 1 h 20 min Frame rate : 0.211 FPS Stream size : 32.0 KiB (0%) Language : Chinese Altyazı #20 Format : UTF-8 Codec ID/Info : UTF-8 Plain Altyazı Duration : 1 h 20 min Frame rate : 0.209 FPS Stream size : 32.4 KiB (0%) Language : Chinese Altyazı #21 Format : UTF-8 Codec ID/Info : UTF-8 Plain Altyazı Duration : 1 h 20 min Frame rate : 0.211 FPS Stream size : 32.4 KiB (0%) Language : Chinese İNDİRME LİNKİ https://iniyor.net/tb/f2d7278f55093c513e8e07fc61504ff2/The%20Ice%20Age%20Adventures%20of%20Buck%20Wild%202022%201080p%20DUAL%20DSNP%20WEB-DL%20x264%20EAC3%205.1%20Atmos%20-%20TEPES%20HdT.mkv.html SuperUp turbobit.net, gofile.io, doodrive.com, megaup.net, send.cm, 1fichier.com, mixdrop.ag, pixeldrain.com, streamtape.com, rapidgator.net
    0 Cevap | 1 Görüntüleme
  • SuperUp nickli üyeye ait kullanıcı resmi (Avatar)
    2 Saat önce
    Buz Devri: Buck Wild'ın Maceraları - The Ice Age Adventures of Buck Wild (2022) 1080p DUAL DSNP WEB-DL x264 Atmos - HdT IMDB LİNKİ Tür: Animasyon, Komedi, Macera, Aile Heyecan arayan sıçan kardeşler Crash ve Eddie kendilerine ait bir yer bulmak için yola çıkar. Ancak onlar kendilerini yerin altındaki devasa bir mağara olan Kayıp Dünya'da kapana kısılmış bir halde bulur. Gelincik Buck Wild tarafından kurtarılan Crash ve Eddie, Kayıp Dünya'yı dinozor egemenliğinden kurtarmak için birlikte harekete geçer. Oyuncular: Simon Pegg, Vincent Tong, Aaron Harris, Utkarsh Ambudkar, Justina Machado, Sean Kenin, Dominique Jennings, Jake Green, Skyler Stone, Theodore Borders FİLM TANITIM LİNKİ FİLMDEN KARELER General Format : Matroska File size : 4.74 GiB Duration : 1 h 21 min Overall bit rate mode : Variable Overall bit rate : 8 371 kb/s Frame rate : 23.976 FPS Video Format : AVC Format/Info : Advanced Video Codec Duration : 1 h 21 min Width : 1 920 pixels Height : 1 080 pixels Frame rate : 23.976 (24000/1001) FPS Stream size : 4.16 GiB (88%) Ses 1 Format : E-AC-3 Duration : 1 h 21 min Channel(s) : 6 channels Frame rate : 31.250 FPS (1536 SPF) Stream size : 148 MiB (3%) Language : Türkçe Ses 2 Format : E-AC-3 JOC Duration : 1 h 21 min Channel(s) : 6 channels Frame rate : 31.250 FPS (1536 SPF) Stream size : 445 MiB (9%) Language : English Altyazı #1 Format : UTF-8 Codec ID/Info : UTF-8 Plain Altyazı Duration : 1 h 15 min Frame rate : 0.002 FPS Stream size : 156 Bytes (0%) Language : Türkçe Altyazı #2 Format : UTF-8 Codec ID/Info : UTF-8 Plain Altyazı Duration : 1 h 20 min Frame rate : 0.210 FPS Stream size : 33.2 KiB (0%) Language : Türkçe Altyazı #3 Format : UTF-8 Codec ID/Info : UTF-8 Plain Altyazı Duration : 1 h 17 min Frame rate : 0.230 FPS Stream size : 36.0 KiB (0%) Language : English Altyazı #4 Format : UTF-8 Codec ID/Info : UTF-8 Plain Altyazı Duration : 1 h 17 min Frame rate : 0.295 FPS Stream size : 43.4 KiB (0%) Language : English Altyazı #5 Format : UTF-8 Codec ID/Info : UTF-8 Plain Altyazı Duration : 1 h 20 min Frame rate : 0.211 FPS Stream size : 28.4 KiB (0%) Language : Danish Altyazı #6 Format : UTF-8 Codec ID/Info : UTF-8 Plain Altyazı Duration : 1 h 20 min Frame rate : 0.202 FPS Stream size : 32.2 KiB (0%) Language : German Altyazı #7 Format : UTF-8 Codec ID/Info : UTF-8 Plain Altyazı Duration : 1 h 20 min Frame rate : 0.187 FPS Stream size : 29.2 KiB (0%) Language : Spanish Altyazı #8 Format : UTF-8 Codec ID/Info : UTF-8 Plain Altyazı Duration : 1 h 20 min Frame rate : 0.191 FPS Stream size : 30.4 KiB (0%) Language : Spanish Altyazı #9 Format : UTF-8 Codec ID/Info : UTF-8 Plain Altyazı Duration : 1 h 20 min Frame rate : 0.210 FPS Stream size : 30.2 KiB (0%) Language : Finnish Altyazı #10 Format : UTF-8 Codec ID/Info : UTF-8 Plain Altyazı Duration : 1 h 20 min Frame rate : 0.199 FPS Stream size : 33.8 KiB (0%) Language : French Altyazı #11 Format : UTF-8 Codec ID/Info : UTF-8 Plain Altyazı Duration : 1 h 20 min Frame rate : 0.202 FPS Stream size : 27.6 KiB (0%) Language : Italian Altyazı #12 Format : UTF-8 Codec ID/Info : UTF-8 Plain Altyazı Duration : 1 h 20 min Frame rate : 0.206 FPS Stream size : 30.6 KiB (0%) Language : Japanese Altyazı #13 Format : UTF-8 Codec ID/Info : UTF-8 Plain Altyazı Duration : 1 h 20 min Frame rate : 0.210 FPS Stream size : 39.3 KiB (0%) Language : Korean Altyazı #14 Format : UTF-8 Codec ID/Info : UTF-8 Plain Altyazı Duration : 1 h 20 min Frame rate : 0.170 FPS Stream size : 28.1 KiB (0%) Language : Dutch Altyazı #15 Format : UTF-8 Codec ID/Info : UTF-8 Plain Altyazı Duration : 1 h 20 min Frame rate : 0.167 FPS Stream size : 29.9 KiB (0%) Language : Norwegian Altyazı #16 Format : UTF-8 Codec ID/Info : UTF-8 Plain Altyazı Duration : 1 h 20 min Frame rate : 0.183 FPS Stream size : 29.3 KiB (0%) Language : Portuguese Altyazı #17 Format : UTF-8 Codec ID/Info : UTF-8 Plain Altyazı Duration : 1 h 20 min Frame rate : 0.203 FPS Stream size : 31.2 KiB (0%) Language : Portuguese Altyazı #18 Format : UTF-8 Codec ID/Info : UTF-8 Plain Altyazı Duration : 1 h 20 min Frame rate : 0.210 FPS Stream size : 31.6 KiB (0%) Language : Swedish Altyazı #19 Format : UTF-8 Codec ID/Info : UTF-8 Plain Altyazı Duration : 1 h 20 min Frame rate : 0.211 FPS Stream size : 32.0 KiB (0%) Language : Chinese Altyazı #20 Format : UTF-8 Codec ID/Info : UTF-8 Plain Altyazı Duration : 1 h 20 min Frame rate : 0.209 FPS Stream size : 32.4 KiB (0%) Language : Chinese Altyazı #21 Format : UTF-8 Codec ID/Info : UTF-8 Plain Altyazı Duration : 1 h 20 min Frame rate : 0.211 FPS Stream size : 32.4 KiB (0%) Language : Chinese İNDİRME LİNKİ https://iniyor.net/tb/f2d7278f55093c513e8e07fc61504ff2/The%20Ice%20Age%20Adventures%20of%20Buck%20Wild%202022%201080p%20DUAL%20DSNP%20WEB-DL%20x264%20EAC3%205.1%20Atmos%20-%20TEPES%20HdT.mkv.html SuperUp turbobit.net, gofile.io, doodrive.com, megaup.net, send.cm, 1fichier.com, mixdrop.ag, pixeldrain.com, streamtape.com, rapidgator.net
    0 Cevap | 0 Görüntüleme
  • SuperUp nickli üyeye ait kullanıcı resmi (Avatar)
    2 Saat önce
    The Acolyte S01 2160p WEB-DL H265 HDR DUAL - TURG 8. BÖLÜM EKLENDİ IMDB LİNKİ Tür: Gizem, "The Acolyte" sırları ve karanlık tarafın güçlerini konu alır ama her şey göründüğü gibi değildir. FİLMDEN KARELER General Format : Matroska File size : 4.53 GiB Duration : 40 min 47 s Overall bit rate : 15.9 Mb/s Frame rate : 24.000 FPS Video Format : HEVC Format/Info : High Efficiency Video Coding Duration : 40 min 47 s Width : 3 840 pixels Height : 2 160 pixels Frame rate : 24.000 FPS Stream size : 4.24 GiB (94%) Audio #1 Format : E-AC-3 JOC Duration : 40 min 47 s Channel(s) : 6 channels Frame rate : 31.250 FPS (1536 SPF) Stream size : 224 MiB (5%) Language : English Audio #2 Format : E-AC-3 Duration : 40 min 47 s Channel(s) : 6 channels Frame rate : 31.250 FPS (1536 SPF) Stream size : 74.7 MiB (2%) Language : Turkish Text #1 Format : UTF-8 Duration : 36 min 37 s Frame rate : 0.225 FPS Stream size : 13.2 KiB (0%) Language : English Text #2 Format : UTF-8 Duration : 36 min 45 s Frame rate : 0.004 FPS Stream size : 399 Bytes (0%) Language : Turkish Text #3 Format : UTF-8 Duration : 40 min 8 s Frame rate : 0.134 FPS Stream size : 9.45 KiB (0%) Language : Turkish BÖLÜM 001 BÖLÜM 002 BÖLÜM 003 BÖLÜM 004 BÖLÜM 005 BÖLÜM 006 BÖLÜM 007 BÖLÜM 008
    0 Cevap | 2 Görüntüleme
  • SuperUp nickli üyeye ait kullanıcı resmi (Avatar)
    2 Saat önce
    The Acolyte S01 1080p WEB-DL H264 DUAL - TURG 8. BÖLÜM EKLENDİ IMDB LİNKİ Tür: Gizem, "The Acolyte" sırları ve karanlık tarafın güçlerini konu alır ama her şey göründüğü gibi değildir. FİLMDEN KARELER General Format : Matroska File size : 1.93 GiB Duration : 40 min 47 s Overall bit rate mode : Variable Overall bit rate : 6 757 kb/s Frame rate : 24.000 FPS Video Format : AVC Format/Info : Advanced Video Codec Duration : 40 min 47 s Width : 1 920 pixels Height : 1 080 pixels Frame rate : 24.000 FPS Stream size : 1.63 GiB (85%) Audio #1 Format : E-AC-3 JOC Duration : 40 min 47 s Channel(s) : 6 channels Frame rate : 31.250 FPS (1536 SPF) Stream size : 224 MiB (11%) Language : English Audio #2 Format : E-AC-3 Duration : 40 min 47 s Channel(s) : 6 channels Frame rate : 31.250 FPS (1536 SPF) Stream size : 74.7 MiB (4%) Language : Turkish Text #1 Format : UTF-8 Duration : 36 min 37 s Frame rate : 0.225 FPS Stream size : 13.2 KiB (0%) Language : English Text #2 Format : UTF-8 Duration : 36 min 45 s Frame rate : 0.004 FPS Stream size : 399 Bytes (0%) Language : Turkish Text #3 Format : UTF-8 Duration : 40 min 8 s Frame rate : 0.134 FPS Stream size : 9.45 KiB (0%) Language : Turkish BÖLÜM 001 BÖLÜM 002 BÖLÜM 003 BÖLÜM 004 BÖLÜM 005 BÖLÜM 006 BÖLÜM 007 BÖLÜM 008
    0 Cevap | 3 Görüntüleme
  • SuperUp nickli üyeye ait kullanıcı resmi (Avatar)
    2 Saat önce
    8. BÖLÜM EKLENDİ
    7 Cevap | 114 Görüntüleme
  • SuperUp nickli üyeye ait kullanıcı resmi (Avatar)
    2 Saat önce
    SuperUp kullanıcısının cevapladığı konu The Acolyte S01 1080p WEB-DL H264 DUAL - TURG Kategorisi 1080p Yabancı Diziler
    8. BÖLÜM EKLENDİ
    16 Cevap | 306 Görüntüleme
  • SuperUp nickli üyeye ait kullanıcı resmi (Avatar)
    2 Saat önce
    Aşk Adası S01 1080p GAiN WEB-DL H264 - TURG 13. BÖLÜM EKLENDİ Aşk Adası'na hoş geldiniz! 7 kadın, 7 erkek ve tek hedef var: GERÇEK AŞK! FİLMDEN KARELER General Format : Matroska File size : 1.39 GiB Duration : 44 min 22 s Overall bit rate : 4 469 kb/s Frame rate : 25.000 FPS Video Format : AVC Format/Info : Advanced Video Codec Duration : 44 min 22 s Width : 1 920 pixels Height : 1 080 pixels Frame rate : 25.000 FPS Stream size : 1.35 GiB (97%) Language : Tatar Audio Format : AAC LC Format/Info : Advanced Audio Codec Low Complexity Duration : 44 min 22 s Channel(s) : 2 channels Frame rate : 43.066 FPS (1024 SPF) Stream size : 35.6 MiB (3%) Language : Türkçe BÖLÜM 001 BÖLÜM 002 BÖLÜM 003 BÖLÜM 004 BÖLÜM 005 BÖLÜM 006 BÖLÜM 007 BÖLÜM 008 BÖLÜM 009 BÖLÜM 010 BÖLÜM 011 BÖLÜM 012 BÖLÜM 013
    0 Cevap | 3 Görüntüleme
  • SuperUp nickli üyeye ait kullanıcı resmi (Avatar)
    2 Saat önce
    SuperUp kullanıcısının cevapladığı konu Aşk Adası S01 1080p GAiN WEB-DL H264 - TURG Kategorisi 1080p Yerli Diziler
    13. BÖLÜM EKLENDİ
    24 Cevap | 504 Görüntüleme
  • SuperUp nickli üyeye ait kullanıcı resmi (Avatar)
    3 Saat önce
    Buz Devri 4: Kıtalar Ayrılıyor - Ice Age: Continental Drift (2012) 2160p DUAL DSNP WEB-DL H265 HDR DDP5.1 - TURG IMDB LİNKİ Tür: Animasyon, Komedi, Macera, Aile Manny, Diego ve Sid'in, kendilerini diğerlerinden ayıran afetten sonra sürüklendikleri bir kıtada başlarına gelenleri anlatıyor. Bir buzdağından derme çatma bir gemi yapan kahramanlarımızın maceralarla dolu epik deniz seferi böyle başlıyor. Manny ve arkadaşlarını bu yeni dünyada egzotik deniz canavarları ve acımasız korsanlar da bekliyor. Tarih öncesi sincap Scrat ise bildiğiniz gibi, lanetli palamudu onu nereye sürüklerse oraya gidiyor. Oyuncular: Ray Romano, John Leguizamo, Denis Leary, Seann William Scott, Josh Peck, Queen Latifah, Jennifer Lopez, Peter Dinklage, Wanda Sykes, Keke Palmer FİLM TANITIM LİNKİ FİLMDEN KARELER General Format : Matroska File size : 9.26 GiB Duration : 1 h 27 min Overall bit rate : 15.1 Mb/s Frame rate : 23.976 FPS Video Format : HEVC Format/Info : High Efficiency Video Coding Duration : 1 h 27 min Width : 3 840 pixels Height : 2 160 pixels Frame rate : 23.976 (24000/1001) FPS Stream size : 8.94 GiB (97%) Ses 1 Format : E-AC-3 Duration : 1 h 27 min Channel(s) : 6 channels Frame rate : 31.250 FPS (1536 SPF) Stream size : 161 MiB (2%) Language : Türkçe Ses 2 Format : E-AC-3 Duration : 1 h 27 min Channel(s) : 6 channels Frame rate : 31.250 FPS (1536 SPF) Stream size : 161 MiB (2%) Language : English Altyazı #1 Format : UTF-8 Codec ID/Info : UTF-8 Plain Altyazı Duration : 1 h 26 min Frame rate : 0.223 FPS Stream size : 36.0 KiB (0%) Language : Türkçe Altyazı #2 Format : UTF-8 Codec ID/Info : UTF-8 Plain Altyazı Duration : 1 h 17 min Frame rate : 0.245 FPS Stream size : 32.3 KiB (0%) Language : English Altyazı #3 Format : UTF-8 Codec ID/Info : UTF-8 Plain Altyazı Duration : 1 h 27 min Frame rate : 0.400 FPS Stream size : 46.3 KiB (0%) Language : English İNDİRME LİNKİ https://iniyor.net/tb/698a70d36ef8f1e1ff7df761503b30b8/Ice.Age.Continental.Drift.2012.2160p.DSNP.WEB-DL.DDP5.1.HDR.H.265-TURG.mkv.html SuperUp turbobit.net, gofile.io, doodrive.com, megaup.net, send.cm, 1fichier.com, mixdrop.ag, pixeldrain.com, streamtape.com, rapidgator.net
    0 Cevap | 3 Görüntüleme
  • SuperUp nickli üyeye ait kullanıcı resmi (Avatar)
    3 Saat önce
    Buz Devri 4: Kıtalar Ayrılıyor - Ice Age: Continental Drift (2012) 2160p DUAL DSNP WEB-DL H265 HDR DDP5.1 - TURG IMDB LİNKİ Tür: Animasyon, Komedi, Macera, Aile Manny, Diego ve Sid'in, kendilerini diğerlerinden ayıran afetten sonra sürüklendikleri bir kıtada başlarına gelenleri anlatıyor. Bir buzdağından derme çatma bir gemi yapan kahramanlarımızın maceralarla dolu epik deniz seferi böyle başlıyor. Manny ve arkadaşlarını bu yeni dünyada egzotik deniz canavarları ve acımasız korsanlar da bekliyor. Tarih öncesi sincap Scrat ise bildiğiniz gibi, lanetli palamudu onu nereye sürüklerse oraya gidiyor. Oyuncular: Ray Romano, John Leguizamo, Denis Leary, Seann William Scott, Josh Peck, Queen Latifah, Jennifer Lopez, Peter Dinklage, Wanda Sykes, Keke Palmer FİLM TANITIM LİNKİ FİLMDEN KARELER General Format : Matroska File size : 9.26 GiB Duration : 1 h 27 min Overall bit rate : 15.1 Mb/s Frame rate : 23.976 FPS Video Format : HEVC Format/Info : High Efficiency Video Coding Duration : 1 h 27 min Width : 3 840 pixels Height : 2 160 pixels Frame rate : 23.976 (24000/1001) FPS Stream size : 8.94 GiB (97%) Ses 1 Format : E-AC-3 Duration : 1 h 27 min Channel(s) : 6 channels Frame rate : 31.250 FPS (1536 SPF) Stream size : 161 MiB (2%) Language : Türkçe Ses 2 Format : E-AC-3 Duration : 1 h 27 min Channel(s) : 6 channels Frame rate : 31.250 FPS (1536 SPF) Stream size : 161 MiB (2%) Language : English Altyazı #1 Format : UTF-8 Codec ID/Info : UTF-8 Plain Altyazı Duration : 1 h 26 min Frame rate : 0.223 FPS Stream size : 36.0 KiB (0%) Language : Türkçe Altyazı #2 Format : UTF-8 Codec ID/Info : UTF-8 Plain Altyazı Duration : 1 h 17 min Frame rate : 0.245 FPS Stream size : 32.3 KiB (0%) Language : English Altyazı #3 Format : UTF-8 Codec ID/Info : UTF-8 Plain Altyazı Duration : 1 h 27 min Frame rate : 0.400 FPS Stream size : 46.3 KiB (0%) Language : English İNDİRME LİNKİ https://iniyor.net/tb/698a70d36ef8f1e1ff7df761503b30b8/Ice.Age.Continental.Drift.2012.2160p.DSNP.WEB-DL.DDP5.1.HDR.H.265-TURG.mkv.html SuperUp turbobit.net, gofile.io, doodrive.com, megaup.net, send.cm, 1fichier.com, mixdrop.ag, pixeldrain.com, streamtape.com, rapidgator.net
    0 Cevap | 0 Görüntüleme
  • SuperUp nickli üyeye ait kullanıcı resmi (Avatar)
    3 Saat önce
    Ayni İpte Asili (2024) Sansürsüz 2160p WEB-DL MUBI x264 - HdT IMDB LİNKİ Tür: Dram Gençlik hayallerinin ve kaygılarının derinine inen Barış Demirdelen'in çıkış filmi, hayat dolu bir samimiyete sahip. Arkadaşlık, aşk ve iş yaşamının labirentlerinde dolanan genç yetişkinleri odağa alan Aynı İpte Asılı, doğallığıyla Amerikan mumblecore filmlerini hatırlatıyor. Oyuncular: Ali Kurum, Büşra Albayrak, Efe Akercan, Güray Doğru, Sinan Arslan, Eray Karadeniz, FİLMDEN KARELER General Format : Matroska File size : 6.70 GiB Duration : 1 h 54 min Overall bit rate : 8 411 kb/s Frame rate : 25.000 FPS Video Format : VP9 Duration : 1 h 54 min Width : 3 840 pixels Height : 1 608 pixels Frame rate : 25.000 FPS Stream size : 6.45 GiB (96%) Language : Türkçe Audio Format : AAC LC Format/Info : Advanced Audio Codec Low Complexity Duration : 1 h 54 min Channel(s) : 2 channels Frame rate : 46.875 FPS (1024 SPF) Stream size : 261 MiB (4%) Language : Türkçe Altyazı Format : UTF-8 Codec ID/Info : UTF-8 Plain Altyazı Duration : 1 h 49 min Frame rate : 0.249 FPS Stream size : 48.7 KiB (0%) Language : English İNDİRME LİNKİ https://iniyor.net/tb/554b5d481534b5c345b206fa23d2ab1d/Ayn%C4%B1%20%C4%B0pte%20As%C4%B1l%C4%B1%20-%20Hanging%20on%20the%20Same%20Rope%202023%20Yerli%20Sans%C3%BCrs%C3%BCz%202160p%20MUBI%20WEB-DL%20x264%20AAC%20-%20HdT.mkv.html SuperUp turbobit.net, gofile.io, doodrive.com, megaup.net, send.cm, 1fichier.com, mixdrop.ag, pixeldrain.com, streamtape.com, rapidgator.net
    0 Cevap | 1 Görüntüleme
  • SuperUp nickli üyeye ait kullanıcı resmi (Avatar)
    4 Saat önce
    Buz Devri 2: Erime Başlıyor - Ice Age: The Meltdown (2006) 2160p DUAL DSNP WEB-DL H265 HDR DDP5.1 - TURG IMDB LİNKİ Tür: Animasyon, Aile, Komedi, Macera Buz Devri'nin üç kahramanı Manny, Sid ve Diego erimeye başlayan buzların arasından çıkıyorlar ve ısınan dünyalarının keyfini sürüyorlar. Üstelik bu kez aralarına yeni isimler de katıldı onlar kadar sevimli olan...Bir ailesi olsun isteyen mamut Manny dünyada kalan tek dişi mamut olan Ellie ile tanışır ama pek de iyi anlaşamazlar. Çünkü Ellie nedense kendisini bir mamut değil de opossum sanmaktadır. Üstelik opossum olan iki çılgın kardeşi de vardır: Crash ve Eddie... Hep birlikte vadinin diğer tarafına geçmeye çalışacaklardır. Çünkü eriyen buzlar bir felakete dönüşmek üzeredir. Bütün bunlar olurken Scrat da yine kucağında çok sevdiği meşe palamudu ile beraber onların arasındadır. Oyuncular: Ray Romano, John Leguizamo, Denis Leary, Queen Latifah, Seann William Scott, Josh Peck, Jay Leno, Will Arnett, Chris Wedge, FİLM TANITIM LİNKİ FİLMDEN KARELER General Format : Matroska File size : 9.61 GiB Duration : 1 h 30 min Overall bit rate : 15.2 Mb/s Frame rate : 23.976 FPS Video Format : HEVC Format/Info : High Efficiency Video Coding Duration : 1 h 30 min Width : 3 840 pixels Height : 2 160 pixels Frame rate : 23.976 (24000/1001) FPS Stream size : 9.28 GiB (97%) Ses 1 Format : E-AC-3 Duration : 1 h 30 min Channel(s) : 6 channels Frame rate : 31.250 FPS (1536 SPF) Stream size : 166 MiB (2%) Language : Türkçe Ses 2 Format : E-AC-3 Duration : 1 h 30 min Channel(s) : 6 channels Frame rate : 31.250 FPS (1536 SPF) Stream size : 166 MiB (2%) Language : English Altyazı #1 Format : UTF-8 Codec ID/Info : UTF-8 Plain Altyazı Duration : 1 h 20 min Frame rate : 0.137 FPS Stream size : 25.2 KiB (0%) Language : Türkçe Altyazı #2 Format : UTF-8 Codec ID/Info : UTF-8 Plain Altyazı Duration : 1 h 30 min Frame rate : 0.311 FPS Stream size : 37.6 KiB (0%) Language : English İNDİRME LİNKİ https://iniyor.net/tb/ab46308f3eaa7d2750686e93a0fd56d5/Ice.Age.The.Meltdown.2006.2160p.DSNP.WEB-DL.DDP5.1.HDR.H.265-TURG.mkv.html SuperUp turbobit.net, gofile.io, doodrive.com, megaup.net, send.cm, 1fichier.com, mixdrop.ag, pixeldrain.com, streamtape.com, rapidgator.net
    0 Cevap | 2 Görüntüleme
Daha Fazla Etkinlik
Spor01 Hakkinda

Temel Bilgiler

Doğum Gününüz
17.Nisan.1986 (38)

İstatistik


Toplam konu
Toplam konu
0
Günlük konu
0
Mesaj adeti
Mesaj adeti
3 (0.00%)
Günlük Ortalama Mesajlar
0.06
Son Mesaj
Uzun Hikaye (2012) ~ WEB-DL/DVD-R 5.1CHN 07.Haziran.2024
Toplam teşekkür
Toplam teşekkür
0
Genel Bilgiler
Son Aktivitesi
12 Dakika önce
Üyelik tarihi
28.Mayıs.2024
Tavsiye Puanı
0

1 Arkadaşım

  1. SuperUp SuperUp isimli Üye şuanda  online konumundadır

    Super Moderator

    SuperUp
Arkadaşlar gösterme 1 to 1 of 1
1 2 3 4 5 6 7 8 9 10 11 12 13 14 15 16 17 18 19 20 21 22 23 24 25 26 27 28 29 30 31 32 33 34 35 36 37 38 39 40 41 42 43 44 45 46 47 48 49 50 51 52 53 54 55 56 57 58 59 60 61 62 63 64 65 66 67 68 69 70 71 72 73 74 75 76 77 78 79 80 81 82 83 84 85 86 87 88 89 90 91 92 93 94 95 96 97 98 99 100 101 102 103 104 105 106 107 108 109 110 111 112 113 114 115 116 117 118 119 120 121 122 123 124 125 126 127 128 129 130 131 132 133 134 135 136 137 138 139 140 141 142 143 144 145 146 147 148 149 150 151 152 153 154 155 156 157 158 159 160 161 162 163 164 165 166 167 168 169 170 171 172 173 174 175 176 177 178 179 180 181 182 183 184 185 186 187 188 189 190 191 192 193 194 195 196 197 198 199 200