• SuperUp nickli üyeye ait kullanıcı resmi (Avatar)
    9 Dakika önce
    Lohusa (2024) 1080p NF WEB-DL H264 - SuperUp IMDB LİNKİ Tür: Komedi, Romantik Lohusa, yeni ebeveyn olan bir anne ve babanın ilk 40 gün boyunca başlarına gelen komik olayları anlatıyor. Burcu ve Onur, çocuklarına kavuşacakları günü heyecanla bekleyen evli bir çiftir. Hamileliği boyunca doğumdan sonra onu bekleyen hayatla ilgili söylenenleri umursamayan Burcu, lohusa depresyonuna girmeyeceğine emindir. Ancak doğumun ardından bebeğiyle tek başına ilgilenmesi, uykusuzluk, hormonlarının değişmesi onun bambaşka gerçeklerle yüzleşmesine ve kendisini birbirinden komik olayların içerisinde bulmasına neden olur. Bu süreci en iyi şekilde yönetmeye çalışan Burcu, lohusa döneminin üstesinden gelmeyi başarabilecek midir? Oyuncular: Gupse Özay, Onur Gürçay, Hazal Türesan, Esra Ruşan, Servet Pandur, Feri Baycu Güler, Su Şanad, Elif Nur Kerkük, Alper Baytekin, Cihan Albayrak FİLM TANITIM LİNKİ FİLMDEN KARELER General Format : Matroska File size : 3.62 GiB Duration : 1 h 58 min Overall bit rate mode : Variable Overall bit rate : 4 376 kb/s Frame rate : 24.000 FPS Video Format : AVC Format/Info : Advanced Video Codec Duration : 1 h 58 min Width : 1 920 pixels Height : 1 080 pixels Frame rate : 24.000 FPS Stream size : 3.09 GiB (85%) Audio Format : E-AC-3 Duration : 1 h 58 min Channel(s) : 6 channels Frame rate : 31.250 FPS (1536 SPF) Stream size : 542 MiB (15%) Language : Türkçe İNDİRME LİNKİ SuperUp turbobit.net, gofile.io, doodrive.com, megaup.net, send.cm, 1fichier.com, mixdrop.ag, pixeldrain.com, streamtape.com, rapidgator.net
    0 Cevap | 0 Görüntüleme
  • SuperUp nickli üyeye ait kullanıcı resmi (Avatar)
    9 Dakika önce
    Lohusa (2024) 1080p NF WEB-DL H264 - SuperUp IMDB LİNKİ Tür: Komedi, Romantik Lohusa, yeni ebeveyn olan bir anne ve babanın ilk 40 gün boyunca başlarına gelen komik olayları anlatıyor. Burcu ve Onur, çocuklarına kavuşacakları günü heyecanla bekleyen evli bir çiftir. Hamileliği boyunca doğumdan sonra onu bekleyen hayatla ilgili söylenenleri umursamayan Burcu, lohusa depresyonuna girmeyeceğine emindir. Ancak doğumun ardından bebeğiyle tek başına ilgilenmesi, uykusuzluk, hormonlarının değişmesi onun bambaşka gerçeklerle yüzleşmesine ve kendisini birbirinden komik olayların içerisinde bulmasına neden olur. Bu süreci en iyi şekilde yönetmeye çalışan Burcu, lohusa döneminin üstesinden gelmeyi başarabilecek midir? Oyuncular: Gupse Özay, Onur Gürçay, Hazal Türesan, Esra Ruşan, Servet Pandur, Feri Baycu Güler, Su Şanad, Elif Nur Kerkük, Alper Baytekin, Cihan Albayrak FİLM TANITIM LİNKİ FİLMDEN KARELER General Format : Matroska File size : 3.62 GiB Duration : 1 h 58 min Overall bit rate mode : Variable Overall bit rate : 4 376 kb/s Frame rate : 24.000 FPS Video Format : AVC Format/Info : Advanced Video Codec Duration : 1 h 58 min Width : 1 920 pixels Height : 1 080 pixels Frame rate : 24.000 FPS Stream size : 3.09 GiB (85%) Audio Format : E-AC-3 Duration : 1 h 58 min Channel(s) : 6 channels Frame rate : 31.250 FPS (1536 SPF) Stream size : 542 MiB (15%) Language : Türkçe İNDİRME LİNKİ SuperUp turbobit.net, gofile.io, doodrive.com, megaup.net, send.cm, 1fichier.com, mixdrop.ag, pixeldrain.com, streamtape.com, rapidgator.net
    0 Cevap | 2 Görüntüleme
  • SuperUp nickli üyeye ait kullanıcı resmi (Avatar)
    1 saat önce
    Kardeş Takımı (2024) 1080p NF WEB-DL H264 DDP5.1 - TURG IMDB LİNKİ Tür: Aile, Komedi Sıradan bir okul sabahına uyandığını zanneden 4 kardeş Deniz, Derya, Ali ve Yaz; anne babalarının aslında birer gizli ajan olduklarını öğrenirler. Evlerindeki gizli bir bölmede saklanan süper bilgisayar TA-OZ 4000 nam-ı diğer TAKOZ'un da yardımlarıyla hem anne ve babalarını hem de Dünya'nın geleceğini kurtarmak için maceraya atılan 4 kardeş; bu zorlu yolculukta gerçek bir Kardeş Takımı'na dönüşeceklerdir. Oyuncular: Çağan Efe Ak, Ecrin Su Çoban, Mehmet Aybars Kaya, Gece Işık Demirel, Ceyda Kasabalı, Fırat Albayram, Yekta Kopan, Mert Denizmen, Gülhan Tekin, Melis İşiten FİLM TANITIM LİNKİ FİLMDEN KARELER General Format : Matroska File size : 3.68 GiB Duration : 1 h 34 min Overall bit rate mode : Variable Overall bit rate : 5 594 kb/s Frame rate : 24.000 FPS Video Format : AVC Format/Info : Advanced Video Codec Duration : 1 h 34 min Width : 1 920 pixels Height : 1 080 pixels Frame rate : 24.000 FPS Stream size : 3.26 GiB (89%) Audio Format : E-AC-3 Duration : 1 h 34 min Channel(s) : 6 channels Frame rate : 31.250 FPS (1536 SPF) Stream size : 431 MiB (11%) Language : Türkçe Altyazı #1 Format : UTF-8 Duration : 1 h 30 min Frame rate : 0.233 FPS Stream size : 45.9 KiB (0%) Language : English Altyazı #2 Format : UTF-8 Duration : 1 h 30 min Frame rate : 0.246 FPS Stream size : 50.9 KiB (0%) Language : Türkçe İNDİRME LİNKİ SuperUp turbobit.net, gofile.io, doodrive.com, megaup.net, send.cm, 1fichier.com, mixdrop.ag, pixeldrain.com, streamtape.com, rapidgator.net
    0 Cevap | 0 Görüntüleme
  • SuperUp nickli üyeye ait kullanıcı resmi (Avatar)
    1 saat önce
    Kardeş Takımı (2024) 1080p NF WEB-DL H264 DDP5.1 - TURG IMDB LİNKİ Tür: Aile, Komedi Sıradan bir okul sabahına uyandığını zanneden 4 kardeş Deniz, Derya, Ali ve Yaz; anne babalarının aslında birer gizli ajan olduklarını öğrenirler. Evlerindeki gizli bir bölmede saklanan süper bilgisayar TA-OZ 4000 nam-ı diğer TAKOZ'un da yardımlarıyla hem anne ve babalarını hem de Dünya'nın geleceğini kurtarmak için maceraya atılan 4 kardeş; bu zorlu yolculukta gerçek bir Kardeş Takımı'na dönüşeceklerdir. Oyuncular: Çağan Efe Ak, Ecrin Su Çoban, Mehmet Aybars Kaya, Gece Işık Demirel, Ceyda Kasabalı, Fırat Albayram, Yekta Kopan, Mert Denizmen, Gülhan Tekin, Melis İşiten FİLM TANITIM LİNKİ FİLMDEN KARELER General Format : Matroska File size : 3.68 GiB Duration : 1 h 34 min Overall bit rate mode : Variable Overall bit rate : 5 594 kb/s Frame rate : 24.000 FPS Video Format : AVC Format/Info : Advanced Video Codec Duration : 1 h 34 min Width : 1 920 pixels Height : 1 080 pixels Frame rate : 24.000 FPS Stream size : 3.26 GiB (89%) Audio Format : E-AC-3 Duration : 1 h 34 min Channel(s) : 6 channels Frame rate : 31.250 FPS (1536 SPF) Stream size : 431 MiB (11%) Language : Türkçe Altyazı #1 Format : UTF-8 Duration : 1 h 30 min Frame rate : 0.233 FPS Stream size : 45.9 KiB (0%) Language : English Altyazı #2 Format : UTF-8 Duration : 1 h 30 min Frame rate : 0.246 FPS Stream size : 50.9 KiB (0%) Language : Türkçe İNDİRME LİNKİ SuperUp turbobit.net, gofile.io, doodrive.com, megaup.net, send.cm, 1fichier.com, mixdrop.ag, pixeldrain.com, streamtape.com, rapidgator.net
    0 Cevap | 5 Görüntüleme
  • SuperUp nickli üyeye ait kullanıcı resmi (Avatar)
    1 saat önce
    Lohusa (2024) 1080p NF WEB-DL H264 DDP5.1 - TURG IMDB LİNKİ Tür: Komedi, Romantik Lohusa, yeni ebeveyn olan bir anne ve babanın ilk 40 gün boyunca başlarına gelen komik olayları anlatıyor. Burcu ve Onur, çocuklarına kavuşacakları günü heyecanla bekleyen evli bir çiftir. Hamileliği boyunca doğumdan sonra onu bekleyen hayatla ilgili söylenenleri umursamayan Burcu, lohusa depresyonuna girmeyeceğine emindir. Ancak doğumun ardından bebeğiyle tek başına ilgilenmesi, uykusuzluk, hormonlarının değişmesi onun bambaşka gerçeklerle yüzleşmesine ve kendisini birbirinden komik olayların içerisinde bulmasına neden olur. Bu süreci en iyi şekilde yönetmeye çalışan Burcu, lohusa döneminin üstesinden gelmeyi başarabilecek midir? Oyuncular: Gupse Özay, Onur Gürçay, Hazal Türesan, Esra Ruşan, Servet Pandur, Feri Baycu Güler, Su Şanad, Elif Nur Kerkük, Alper Baytekin, Cihan Albayrak FİLM TANITIM LİNKİ FİLMDEN KARELER General Format : Matroska File size : 4.66 GiB Duration : 1 h 58 min Overall bit rate mode : Variable Overall bit rate : 5 634 kb/s Frame rate : 24.000 FPS Video Format : AVC Format/Info : Advanced Video Codec Duration : 1 h 58 min Width : 1 920 pixels Height : 1 080 pixels Frame rate : 24.000 FPS Stream size : 4.13 GiB (89%) Audio Format : E-AC-3 Duration : 1 h 58 min Channel(s) : 6 channels Frame rate : 31.250 FPS (1536 SPF) Stream size : 542 MiB (11%) Language : Türkçe Altyazı #1 Format : UTF-8 Duration : 1 h 58 min Frame rate : 0.309 FPS Stream size : 112 KiB (0%) Language : Arabic Altyazı #2 Format : UTF-8 Duration : 1 h 58 min Frame rate : 0.309 FPS Stream size : 67.1 KiB (0%) Language : German Altyazı #3 Format : UTF-8 Duration : 1 h 58 min Frame rate : 0.356 FPS Stream size : 83.0 KiB (0%) Language : Türkçe İNDİRME LİNKİ SuperUp turbobit.net, gofile.io, doodrive.com, megaup.net, send.cm, 1fichier.com, mixdrop.ag, pixeldrain.com, streamtape.com, rapidgator.net
    0 Cevap | 0 Görüntüleme
  • SuperUp nickli üyeye ait kullanıcı resmi (Avatar)
    1 saat önce
    Lohusa (2024) 1080p NF WEB-DL H264 DDP5.1 - TURG IMDB LİNKİ Tür: Komedi, Romantik Lohusa, yeni ebeveyn olan bir anne ve babanın ilk 40 gün boyunca başlarına gelen komik olayları anlatıyor. Burcu ve Onur, çocuklarına kavuşacakları günü heyecanla bekleyen evli bir çiftir. Hamileliği boyunca doğumdan sonra onu bekleyen hayatla ilgili söylenenleri umursamayan Burcu, lohusa depresyonuna girmeyeceğine emindir. Ancak doğumun ardından bebeğiyle tek başına ilgilenmesi, uykusuzluk, hormonlarının değişmesi onun bambaşka gerçeklerle yüzleşmesine ve kendisini birbirinden komik olayların içerisinde bulmasına neden olur. Bu süreci en iyi şekilde yönetmeye çalışan Burcu, lohusa döneminin üstesinden gelmeyi başarabilecek midir? Oyuncular: Gupse Özay, Onur Gürçay, Hazal Türesan, Esra Ruşan, Servet Pandur, Feri Baycu Güler, Su Şanad, Elif Nur Kerkük, Alper Baytekin, Cihan Albayrak FİLM TANITIM LİNKİ FİLMDEN KARELER General Format : Matroska File size : 4.66 GiB Duration : 1 h 58 min Overall bit rate mode : Variable Overall bit rate : 5 634 kb/s Frame rate : 24.000 FPS Video Format : AVC Format/Info : Advanced Video Codec Duration : 1 h 58 min Width : 1 920 pixels Height : 1 080 pixels Frame rate : 24.000 FPS Stream size : 4.13 GiB (89%) Audio Format : E-AC-3 Duration : 1 h 58 min Channel(s) : 6 channels Frame rate : 31.250 FPS (1536 SPF) Stream size : 542 MiB (11%) Language : Türkçe Altyazı #1 Format : UTF-8 Duration : 1 h 58 min Frame rate : 0.309 FPS Stream size : 112 KiB (0%) Language : Arabic Altyazı #2 Format : UTF-8 Duration : 1 h 58 min Frame rate : 0.309 FPS Stream size : 67.1 KiB (0%) Language : German Altyazı #3 Format : UTF-8 Duration : 1 h 58 min Frame rate : 0.356 FPS Stream size : 83.0 KiB (0%) Language : Türkçe İNDİRME LİNKİ SuperUp turbobit.net, gofile.io, doodrive.com, megaup.net, send.cm, 1fichier.com, mixdrop.ag, pixeldrain.com, streamtape.com, rapidgator.net
    1 Cevap | 8 Görüntüleme
  • SuperUp nickli üyeye ait kullanıcı resmi (Avatar)
    1 saat önce
    Jesus Revolution (2023) 1080p DUAL BluRay x264 - HdT IMDB LİNKİ Tür: Dram, Tarih Annesi Charlene tarafından büyütülen Greg Laurie ve bir grup genç, herhangi bir kurtuluş yolu ile gerçeği yeniden tanımlamak için güneşli Güney Kaliforniya'ya gider. Burada tesadüfen karizmatik bir hippi sokak vaizi olan Lonnie Frisbee ve kilisesinin kapılarını dolaşan bir gençliğe açan Papaz Chuck Smith ile tanışır. Ortaya çıkan şey, Amerikan tarihindeki en büyük ruhsal uyanış olur. Oyuncular: Joel Courtney, Kelsey Grammer, Jonathan Roumie, Anna Grace Barlow, Julia Campbell, Alexia Ioannides, Matthew Montemaro, Mina Sundwall FİLM TANITIM LİNKİ FİLMDEN KARELER General Format : Matroska File size : 15.6 GiB Duration : 1 h 59 min Overall bit rate : 18.6 Mb/s Frame rate : 23.976 FPS Video Format : AVC Format/Info : Advanced Video Codec Duration : 1 h 59 min Width : 1 920 pixels Height : 802 pixels Frame rate : 23.976 (24000/1001) FPS Stream size : 14.1 GiB (91%) Language : English Ses 1 Format : AC-3 Format/Info : Audio Coding 3 Duration : 1 h 59 min Channel(s) : 2 channels Frame rate : 31.250 FPS (1536 SPF) Stream size : 165 MiB (1%) Language : Türkçe Ses 2 Format : E-AC-3 Duration : 1 h 59 min Channel(s) : 8 channels Frame rate : 31.250 FPS (1536 SPF) Stream size : 1.29 GiB (8%) Language : English Altyazı #1 Format : UTF-8 Duration : 1 h 55 min Frame rate : 0.288 FPS Stream size : 57.3 KiB (0%) Language : English Altyazı #2 Format : UTF-8 Duration : 1 h 57 min Frame rate : 0.319 FPS Stream size : 64.6 KiB (0%) Language : English Altyazı #3 Format : UTF-8 Duration : 1 h 59 min Frame rate : 0.231 FPS Stream size : 51.2 KiB (0%) Language : Türkçe Altyazı #4 Format : UTF-8 Duration : 1 h 59 min Frame rate : 0.024 FPS Stream size : 6.43 KiB (0%) Language : Türkçe .iniyor.net.mkv.html"] İNDİRME LİNKİ SuperUp turbobit.net, gofile.io, doodrive.com, megaup.net, send.cm, 1fichier.com, mixdrop.ag, pixeldrain.com, streamtape.com, rapidgator.net
    0 Cevap | 0 Görüntüleme
  • SuperUp nickli üyeye ait kullanıcı resmi (Avatar)
    1 saat önce
    Jesus Revolution (2023) 1080p DUAL BluRay x264 - HdT IMDB LİNKİ Tür: Dram, Tarih Annesi Charlene tarafından büyütülen Greg Laurie ve bir grup genç, herhangi bir kurtuluş yolu ile gerçeği yeniden tanımlamak için güneşli Güney Kaliforniya'ya gider. Burada tesadüfen karizmatik bir hippi sokak vaizi olan Lonnie Frisbee ve kilisesinin kapılarını dolaşan bir gençliğe açan Papaz Chuck Smith ile tanışır. Ortaya çıkan şey, Amerikan tarihindeki en büyük ruhsal uyanış olur. Oyuncular: Joel Courtney, Kelsey Grammer, Jonathan Roumie, Anna Grace Barlow, Julia Campbell, Alexia Ioannides, Matthew Montemaro, Mina Sundwall FİLM TANITIM LİNKİ FİLMDEN KARELER General Format : Matroska File size : 15.6 GiB Duration : 1 h 59 min Overall bit rate : 18.6 Mb/s Frame rate : 23.976 FPS Video Format : AVC Format/Info : Advanced Video Codec Duration : 1 h 59 min Width : 1 920 pixels Height : 802 pixels Frame rate : 23.976 (24000/1001) FPS Stream size : 14.1 GiB (91%) Language : English Ses 1 Format : AC-3 Format/Info : Audio Coding 3 Duration : 1 h 59 min Channel(s) : 2 channels Frame rate : 31.250 FPS (1536 SPF) Stream size : 165 MiB (1%) Language : Türkçe Ses 2 Format : E-AC-3 Duration : 1 h 59 min Channel(s) : 8 channels Frame rate : 31.250 FPS (1536 SPF) Stream size : 1.29 GiB (8%) Language : English Altyazı #1 Format : UTF-8 Duration : 1 h 55 min Frame rate : 0.288 FPS Stream size : 57.3 KiB (0%) Language : English Altyazı #2 Format : UTF-8 Duration : 1 h 57 min Frame rate : 0.319 FPS Stream size : 64.6 KiB (0%) Language : English Altyazı #3 Format : UTF-8 Duration : 1 h 59 min Frame rate : 0.231 FPS Stream size : 51.2 KiB (0%) Language : Türkçe Altyazı #4 Format : UTF-8 Duration : 1 h 59 min Frame rate : 0.024 FPS Stream size : 6.43 KiB (0%) Language : Türkçe .iniyor.net.mkv.html"] İNDİRME LİNKİ SuperUp turbobit.net, gofile.io, doodrive.com, megaup.net, send.cm, 1fichier.com, mixdrop.ag, pixeldrain.com, streamtape.com, rapidgator.net
    0 Cevap | 0 Görüntüleme
  • SuperUp nickli üyeye ait kullanıcı resmi (Avatar)
    2 Saat önce
    Casablanca (1942) 1080p DUAL BluRay x264 - TSRG IMDB LİNKİ Tür: Dram, Romantik İkinci dünya savaşında çok direnişli örgütün lideri Victor Lazlow Alman konsantrsayonu kampından kaçarak Casablanca'ya gelir. Amacı Lizbon'a oradanda ABD'ye iltica etmektir. Fakat bütün umutları şans eseri Casablanca'nın en meşhur gece kulübünün sahibi olan Rick'e bağlamıştır. Rick kaçış için gerekli olan pasaportlara sahib olan tek kişidir. Öte yandan Ricky'in Victor'un yakalanması ya da öldürülmesi için gerekli nedeni vardır. Victor'un karısı Ilsa Ricky bir zamanlar kendisini terk ettiğine inandığı ve kalbinin derinliklerine gömdüğü büyük aşkıdır. Oyuncular: Humphrey Bogart, Ingrid Bergman, Paul Henreid, Claude Rains, Conrad Veidt, Sydney Greenstreet, Peter Lorre, S.Z. Sakall, Madeleine Lebeau, Dooley Wilson FİLM TANITIM LİNKİ FİLMDEN KARELER General Format : Matroska File size : 12.7 GiB Duration : 1 h 42 min Overall bit rate mode : Variable Overall bit rate : 17.7 Mb/s Frame rate : 23.976 FPS Video Format : AVC Format/Info : Advanced Video Codec Duration : 1 h 42 min Width : 1 480 pixels Height : 1 080 pixels Frame rate : 23.976 FPS Language : Türkçe Ses 1 Format : DTS Duration : 1 h 42 min Channel(s) : 2 channels Frame rate : 93.750 FPS (512 SPF) Stream size : 328 MiB (3%) Language : Türkçe Ses 2 Format : DTS XLL Commercial name : DTS-HD Master Audio Duration : 1 h 42 min Channel(s) : 1 channel Frame rate : 93.750 FPS (512 SPF) Language : English Altyazı #1 Format : UTF-8 Language : Türkçe Altyazı #2 Format : UTF-8 Language : English İNDİRME LİNKİ SuperUp turbobit.net, gofile.io, doodrive.com, megaup.net, send.cm, 1fichier.com, mixdrop.ag, pixeldrain.com, streamtape.com, rapidgator.net
    0 Cevap | 0 Görüntüleme
  • SuperUp nickli üyeye ait kullanıcı resmi (Avatar)
    2 Saat önce
    Casablanca (1942) 1080p DUAL BluRay x264 - TSRG IMDB LİNKİ Tür: Dram, Romantik İkinci dünya savaşında çok direnişli örgütün lideri Victor Lazlow Alman konsantrsayonu kampından kaçarak Casablanca'ya gelir. Amacı Lizbon'a oradanda ABD'ye iltica etmektir. Fakat bütün umutları şans eseri Casablanca'nın en meşhur gece kulübünün sahibi olan Rick'e bağlamıştır. Rick kaçış için gerekli olan pasaportlara sahib olan tek kişidir. Öte yandan Ricky'in Victor'un yakalanması ya da öldürülmesi için gerekli nedeni vardır. Victor'un karısı Ilsa Ricky bir zamanlar kendisini terk ettiğine inandığı ve kalbinin derinliklerine gömdüğü büyük aşkıdır. Oyuncular: Humphrey Bogart, Ingrid Bergman, Paul Henreid, Claude Rains, Conrad Veidt, Sydney Greenstreet, Peter Lorre, S.Z. Sakall, Madeleine Lebeau, Dooley Wilson FİLM TANITIM LİNKİ FİLMDEN KARELER General Format : Matroska File size : 12.7 GiB Duration : 1 h 42 min Overall bit rate mode : Variable Overall bit rate : 17.7 Mb/s Frame rate : 23.976 FPS Video Format : AVC Format/Info : Advanced Video Codec Duration : 1 h 42 min Width : 1 480 pixels Height : 1 080 pixels Frame rate : 23.976 FPS Language : Türkçe Ses 1 Format : DTS Duration : 1 h 42 min Channel(s) : 2 channels Frame rate : 93.750 FPS (512 SPF) Stream size : 328 MiB (3%) Language : Türkçe Ses 2 Format : DTS XLL Commercial name : DTS-HD Master Audio Duration : 1 h 42 min Channel(s) : 1 channel Frame rate : 93.750 FPS (512 SPF) Language : English Altyazı #1 Format : UTF-8 Language : Türkçe Altyazı #2 Format : UTF-8 Language : English İNDİRME LİNKİ SuperUp turbobit.net, gofile.io, doodrive.com, megaup.net, send.cm, 1fichier.com, mixdrop.ag, pixeldrain.com, streamtape.com, rapidgator.net
    1 Cevap | 8 Görüntüleme
  • SuperUp nickli üyeye ait kullanıcı resmi (Avatar)
    3 Saat önce
    Hızlı ve Öfkeli 6 - Furious 6 (2013) 1080p Türkçe Altyazılı EXTENDED BluRay x264 IMDB LİNKİ Tür: Aksiyon, Gerilim, Suç Dom ve Brian'ın birlikte hareket ederek çok nüfuzlu bir kişinin imparatorluğunu yıktıklarından bu yana kahramanlarımız tüm dünyaya yayılmıştır. Bu arada Hobbs düzenlenen yepyeni bir organizasyonu takip etmektedir. Suçlu takımını durdurmanın tek yolu sokakta üstün gelmektir. Bu nedenle Hobbs, Dom'dan en seçkin takımını Londra'da toplamasını ister. Böylece evlerine dönebilecekler ve ailelerini yeniden bir araya getirebileceklerdir. Oyuncular: Vin Diesel, Paul Walker, Dwayne Johnson, Jordana Brewster, Michelle Rodriguez, Tyrese Gibson, Sung Kang, Gal Gadot, Ludacris, Luke Evans FİLM TANITIM LİNKİ General Format : Matroska File size : 14.8 GiB Duration : 2 h 11 min Overall bit rate : 16.2 Mb/s Frame rate : 23.976 FPS Video Format : AVC Format/Info : Advanced Video Codec Duration : 2 h 11 min Width : 1 920 pixels Height : 816 pixels Frame rate : 23.976 (24000/1001) FPS Stream size : 13.0 GiB (87%) Language : English Ses 1 Format : DTS Duration : 2 h 11 min Channel(s) : 6 channels Frame rate : 93.750 FPS (512 SPF) Stream size : 1.38 GiB (9%) Language : English Ses 2 Format : AC-3 Format/Info : Audio Coding 3 Duration : 2 h 11 min Channel(s) : 2 channels Frame rate : 31.250 FPS (1536 SPF) Stream size : 180 MiB (1%) Language : English Altyazı #1 Format : UTF-8 Language : Portuguese Altyazı #2 Format : UTF-8 Language : Portuguese Altyazı #3 Format : UTF-8 Language : Bulgarian Altyazı #4 Format : UTF-8 Language : Czech Altyazı #5 Format : UTF-8 Language : Danish Altyazı #6 Format : UTF-8 Language : English Altyazı #7 Format : UTF-8 Language : English Altyazı #8 Format : UTF-8 Language : English Altyazı #9 Format : UTF-8 Language : French Altyazı #10 Format : UTF-8 Language : Greek Altyazı #11 Format : UTF-8 Language : Hebrew Altyazı #12 Format : UTF-8 Language : Hungarian Altyazı #13 Format : UTF-8 Language : Indonesian Altyazı #14 Format : UTF-8 Language : Malayalam Altyazı #15 Format : UTF-8 Language : Persian Altyazı #16 Format : UTF-8 Language : Polish Altyazı #17 Format : UTF-8 Language : Portuguese Altyazı #18 Format : UTF-8 Language : Portuguese Altyazı #19 Format : UTF-8 Language : Romanian Altyazı #20 Format : UTF-8 Language : Serbian Altyazı #21 Format : UTF-8 Language : Slovenian Altyazı #22 Format : UTF-8 Language : Spanish Altyazı #23 Format : UTF-8 Language : Spanish Altyazı #24 Format : UTF-8 Language : Spanish Altyazı #25 Format : UTF-8 Language : Swedish Altyazı #26 Format : UTF-8 Language : Türkçe İNDİRME LİNKİ SuperUp turbobit.net, gofile.io, doodrive.com, megaup.net, send.cm, 1fichier.com, mixdrop.ag, pixeldrain.com, streamtape.com, rapidgator.net
    0 Cevap | 0 Görüntüleme
  • SuperUp nickli üyeye ait kullanıcı resmi (Avatar)
    3 Saat önce
    Hızlı ve Öfkeli 6 - Furious 6 (2013) 1080p Türkçe Altyazılı EXTENDED BluRay x264 IMDB LİNKİ Tür: Aksiyon, Gerilim, Suç Dom ve Brian'ın birlikte hareket ederek çok nüfuzlu bir kişinin imparatorluğunu yıktıklarından bu yana kahramanlarımız tüm dünyaya yayılmıştır. Bu arada Hobbs düzenlenen yepyeni bir organizasyonu takip etmektedir. Suçlu takımını durdurmanın tek yolu sokakta üstün gelmektir. Bu nedenle Hobbs, Dom'dan en seçkin takımını Londra'da toplamasını ister. Böylece evlerine dönebilecekler ve ailelerini yeniden bir araya getirebileceklerdir. Oyuncular: Vin Diesel, Paul Walker, Dwayne Johnson, Jordana Brewster, Michelle Rodriguez, Tyrese Gibson, Sung Kang, Gal Gadot, Ludacris, Luke Evans FİLM TANITIM LİNKİ General Format : Matroska File size : 14.8 GiB Duration : 2 h 11 min Overall bit rate : 16.2 Mb/s Frame rate : 23.976 FPS Video Format : AVC Format/Info : Advanced Video Codec Duration : 2 h 11 min Width : 1 920 pixels Height : 816 pixels Frame rate : 23.976 (24000/1001) FPS Stream size : 13.0 GiB (87%) Language : English Ses 1 Format : DTS Duration : 2 h 11 min Channel(s) : 6 channels Frame rate : 93.750 FPS (512 SPF) Stream size : 1.38 GiB (9%) Language : English Ses 2 Format : AC-3 Format/Info : Audio Coding 3 Duration : 2 h 11 min Channel(s) : 2 channels Frame rate : 31.250 FPS (1536 SPF) Stream size : 180 MiB (1%) Language : English Altyazı #1 Format : UTF-8 Language : Portuguese Altyazı #2 Format : UTF-8 Language : Portuguese Altyazı #3 Format : UTF-8 Language : Bulgarian Altyazı #4 Format : UTF-8 Language : Czech Altyazı #5 Format : UTF-8 Language : Danish Altyazı #6 Format : UTF-8 Language : English Altyazı #7 Format : UTF-8 Language : English Altyazı #8 Format : UTF-8 Language : English Altyazı #9 Format : UTF-8 Language : French Altyazı #10 Format : UTF-8 Language : Greek Altyazı #11 Format : UTF-8 Language : Hebrew Altyazı #12 Format : UTF-8 Language : Hungarian Altyazı #13 Format : UTF-8 Language : Indonesian Altyazı #14 Format : UTF-8 Language : Malayalam Altyazı #15 Format : UTF-8 Language : Persian Altyazı #16 Format : UTF-8 Language : Polish Altyazı #17 Format : UTF-8 Language : Portuguese Altyazı #18 Format : UTF-8 Language : Portuguese Altyazı #19 Format : UTF-8 Language : Romanian Altyazı #20 Format : UTF-8 Language : Serbian Altyazı #21 Format : UTF-8 Language : Slovenian Altyazı #22 Format : UTF-8 Language : Spanish Altyazı #23 Format : UTF-8 Language : Spanish Altyazı #24 Format : UTF-8 Language : Spanish Altyazı #25 Format : UTF-8 Language : Swedish Altyazı #26 Format : UTF-8 Language : Türkçe İNDİRME LİNKİ SuperUp turbobit.net, gofile.io, doodrive.com, megaup.net, send.cm, 1fichier.com, mixdrop.ag, pixeldrain.com, streamtape.com, rapidgator.net
    2 Cevap | 12 Görüntüleme
  • SuperUp nickli üyeye ait kullanıcı resmi (Avatar)
    3 Saat önce
    Arada Kalan - What Maisie Knew (2012) 1080p DUAL BluRay x264 - TSRG IMDB LİNKİ Tür: Dram Altı yaşındaki Maisie, rock yıldızı annesi Susanna ile karizmatik ancak ilgisiz sanat simsarı babası Beale'in tatsız boşanmasının sarsıntılarıyla boğuşmaktadır. Maisie'nin hayatına, boşanmanın ardından anne ve babasının yeni eşleri de girer. Ancak küçük kız, eşlerinin bencilliğini fark edip birbirlerine aşık olan üvey ebeveyniyle yakınlaşınca durum iyice çetrefilleşir. Oyuncular: Julianne Moore, Steve Coogan, Alexander Skarsgard, Joanna Vanderham, Onata Aprile, Diana Garcia, Sadie Rae, Jesse Stone Spadaccini, Amelia Campbell, Maddie Corman FİLM TANITIM LİNKİ FİLMDEN KARELER General Format : Matroska File size : 5.44 GiB Duration : 1 h 38 min Overall bit rate : 7 879 kb/s Frame rate : 23.976 FPS Video Format : AVC Format/Info : Advanced Video Codec Duration : 1 h 38 min Width : 1 920 pixels Height : 800 pixels Frame rate : 23.976 (24000/1001) FPS Stream size : 4.86 GiB (89%) Language : English Ses 1 Format : AC-3 Format/Info : Audio Coding 3 Duration : 1 h 38 min Channel(s) : 2 channels Frame rate : 31.250 FPS (1536 SPF) Stream size : 136 MiB (2%) Language : Türkçe Ses 2 Format : AC-3 Format/Info : Audio Coding 3 Duration : 1 h 38 min Channel(s) : 6 channels Frame rate : 31.250 FPS (1536 SPF) Stream size : 453 MiB (8%) Language : English Altyazı #1 Format : UTF-8 Duration : 1 h 34 min Frame rate : 0.203 FPS Stream size : 37.9 KiB (0%) Language : Türkçe Altyazı #2 Format : PGS Duration : 1 h 33 min Frame rate : 0.478 FPS Stream size : 21.7 MiB (0%) Language : English Altyazı #3 Format : PGS Duration : 1 h 33 min Frame rate : 0.427 FPS Stream size : 17.8 MiB (0%) Language : Spanish İNDİRME LİNKİ SuperUp turbobit.net, gofile.io, doodrive.com, megaup.net, send.cm, 1fichier.com, mixdrop.ag, pixeldrain.com, streamtape.com, rapidgator.net
    0 Cevap | 0 Görüntüleme
  • SuperUp nickli üyeye ait kullanıcı resmi (Avatar)
    3 Saat önce
    Arada Kalan - What Maisie Knew (2012) 1080p DUAL BluRay x264 - TSRG IMDB LİNKİ Tür: Dram Altı yaşındaki Maisie, rock yıldızı annesi Susanna ile karizmatik ancak ilgisiz sanat simsarı babası Beale'in tatsız boşanmasının sarsıntılarıyla boğuşmaktadır. Maisie'nin hayatına, boşanmanın ardından anne ve babasının yeni eşleri de girer. Ancak küçük kız, eşlerinin bencilliğini fark edip birbirlerine aşık olan üvey ebeveyniyle yakınlaşınca durum iyice çetrefilleşir. Oyuncular: Julianne Moore, Steve Coogan, Alexander Skarsgard, Joanna Vanderham, Onata Aprile, Diana Garcia, Sadie Rae, Jesse Stone Spadaccini, Amelia Campbell, Maddie Corman FİLM TANITIM LİNKİ FİLMDEN KARELER General Format : Matroska File size : 5.44 GiB Duration : 1 h 38 min Overall bit rate : 7 879 kb/s Frame rate : 23.976 FPS Video Format : AVC Format/Info : Advanced Video Codec Duration : 1 h 38 min Width : 1 920 pixels Height : 800 pixels Frame rate : 23.976 (24000/1001) FPS Stream size : 4.86 GiB (89%) Language : English Ses 1 Format : AC-3 Format/Info : Audio Coding 3 Duration : 1 h 38 min Channel(s) : 2 channels Frame rate : 31.250 FPS (1536 SPF) Stream size : 136 MiB (2%) Language : Türkçe Ses 2 Format : AC-3 Format/Info : Audio Coding 3 Duration : 1 h 38 min Channel(s) : 6 channels Frame rate : 31.250 FPS (1536 SPF) Stream size : 453 MiB (8%) Language : English Altyazı #1 Format : UTF-8 Duration : 1 h 34 min Frame rate : 0.203 FPS Stream size : 37.9 KiB (0%) Language : Türkçe Altyazı #2 Format : PGS Duration : 1 h 33 min Frame rate : 0.478 FPS Stream size : 21.7 MiB (0%) Language : English Altyazı #3 Format : PGS Duration : 1 h 33 min Frame rate : 0.427 FPS Stream size : 17.8 MiB (0%) Language : Spanish İNDİRME LİNKİ SuperUp turbobit.net, gofile.io, doodrive.com, megaup.net, send.cm, 1fichier.com, mixdrop.ag, pixeldrain.com, streamtape.com, rapidgator.net
    2 Cevap | 9 Görüntüleme
  • SuperUp nickli üyeye ait kullanıcı resmi (Avatar)
    3 Saat önce
    Çapkın Kız (1963) 1080p WEB-DL x264 - TSRG IMDB LİNKİ Tür: Komedi, Romantik Haşim Toprakoğlu, fakirlikten gelme bir işadamı. Siyasette hazırlanmaktaydı. Para, nüfuz, mevki, her şeyi var. Bir tek kızına forsu sökmüyor. Suna'nın şımarıklıkları gazete manşetlerinde hep Oyuncular: Türkan Şoray, Tamer Yiğit, Hulusi Kentmen, Ahmet Tarık Tekçe, Semih Sezerli, Vahi Öz, Aziz Basmacı, İsmet Ay, Danyal Topatan, Mehmet Ali Akpınar FİLMDEN KARELER General Format : Matroska File size : 2.24 GiB Duration : 1 h 29 min Overall bit rate : 3 597 kb/s Frame rate : 25.000 FPS Video Format : AVC Format/Info : Advanced Video Codec Duration : 1 h 29 min Width : 1 920 pixels Height : 1 080 pixels Frame rate : 25.000 FPS Stream size : 2.16 GiB (96%) Audio Format : AAC LC Format/Info : Advanced Audio Codec Low Complexity Duration : 1 h 29 min Channel(s) : 2 channels Frame rate : 46.875 FPS (1024 SPF) Stream size : 82.0 MiB (4%) Language : Türkçe İNDİRME LİNKİ SuperUp turbobit.net, gofile.io, doodrive.com, megaup.net, send.cm, 1fichier.com, mixdrop.ag, pixeldrain.com, streamtape.com, rapidgator.net
    0 Cevap | 0 Görüntüleme
  • SuperUp nickli üyeye ait kullanıcı resmi (Avatar)
    3 Saat önce
    Çapkın Kız (1963) 1080p WEB-DL x264 - TSRG IMDB LİNKİ Tür: Komedi, Romantik Haşim Toprakoğlu, fakirlikten gelme bir işadamı. Siyasette hazırlanmaktaydı. Para, nüfuz, mevki, her şeyi var. Bir tek kızına forsu sökmüyor. Suna'nın şımarıklıkları gazete manşetlerinde hep Oyuncular: Türkan Şoray, Tamer Yiğit, Hulusi Kentmen, Ahmet Tarık Tekçe, Semih Sezerli, Vahi Öz, Aziz Basmacı, İsmet Ay, Danyal Topatan, Mehmet Ali Akpınar FİLMDEN KARELER General Format : Matroska File size : 2.24 GiB Duration : 1 h 29 min Overall bit rate : 3 597 kb/s Frame rate : 25.000 FPS Video Format : AVC Format/Info : Advanced Video Codec Duration : 1 h 29 min Width : 1 920 pixels Height : 1 080 pixels Frame rate : 25.000 FPS Stream size : 2.16 GiB (96%) Audio Format : AAC LC Format/Info : Advanced Audio Codec Low Complexity Duration : 1 h 29 min Channel(s) : 2 channels Frame rate : 46.875 FPS (1024 SPF) Stream size : 82.0 MiB (4%) Language : Türkçe İNDİRME LİNKİ SuperUp turbobit.net, gofile.io, doodrive.com, megaup.net, send.cm, 1fichier.com, mixdrop.ag, pixeldrain.com, streamtape.com, rapidgator.net
    2 Cevap | 11 Görüntüleme
  • SuperUp nickli üyeye ait kullanıcı resmi (Avatar)
    4 Saat önce
    Bire On Vardı (1963) 1080p WEB-DL x264 - TSRG IMDB LİNKİ Tür: Gerilim, Suç İstanbul'a zengin olma hayalleriyle gelen Mehmet, iş bulamayınca hırsızlık yapar. İşlediği suçun ızdırabıyla bir gece kulübüne gider. Kulüpte dansçı olarak çalışan Fatma ile tanışır. Fatma'ya yaşadıklarını anlatır. Konuştukça aynı kaderi paylaştıklarını fark ederler. Fatma da ünlü olma hayalleriyle geldiği İstanbul'da gece kulübüne düşmüştür. Bu karşılaşmanın kader olduğuna inanarak bir plan yaparlar. İstanbul'dan kurtulmak için yaptıkları bu plan karşılarına yeni engeller çıkarır. Oyuncular: Fatma Girik, Tamer Yiğit, Nuray Uslu, Hüseyin Baradan, Süha Doğan, Diclehan Baban, Reha Yurdakul, Zuhal Tan, Kaya Erçakar, Hakkı Haktan FİLMDEN KARELER General Format : Matroska File size : 2.23 GiB Duration : 1 h 28 min Overall bit rate : 3 601 kb/s Frame rate : 25.000 FPS Video Format : AVC Format/Info : Advanced Video Codec Duration : 1 h 28 min Width : 1 920 pixels Height : 1 080 pixels Frame rate : 25.000 FPS Stream size : 2.15 GiB (96%) Audio Format : AAC LC Format/Info : Advanced Audio Codec Low Complexity Duration : 1 h 28 min Channel(s) : 2 channels Frame rate : 46.875 FPS (1024 SPF) Stream size : 81.5 MiB (4%) Language : Türkçe İNDİRME LİNKİ SuperUp turbobit.net, gofile.io, doodrive.com, megaup.net, send.cm, 1fichier.com, mixdrop.ag, pixeldrain.com, streamtape.com, rapidgator.net
    0 Cevap | 5 Görüntüleme
  • SuperUp nickli üyeye ait kullanıcı resmi (Avatar)
    4 Saat önce
    Bire On Vardı (1963) 1080p WEB-DL x264 - TSRG IMDB LİNKİ Tür: Gerilim, Suç İstanbul'a zengin olma hayalleriyle gelen Mehmet, iş bulamayınca hırsızlık yapar. İşlediği suçun ızdırabıyla bir gece kulübüne gider. Kulüpte dansçı olarak çalışan Fatma ile tanışır. Fatma'ya yaşadıklarını anlatır. Konuştukça aynı kaderi paylaştıklarını fark ederler. Fatma da ünlü olma hayalleriyle geldiği İstanbul'da gece kulübüne düşmüştür. Bu karşılaşmanın kader olduğuna inanarak bir plan yaparlar. İstanbul'dan kurtulmak için yaptıkları bu plan karşılarına yeni engeller çıkarır. Oyuncular: Fatma Girik, Tamer Yiğit, Nuray Uslu, Hüseyin Baradan, Süha Doğan, Diclehan Baban, Reha Yurdakul, Zuhal Tan, Kaya Erçakar, Hakkı Haktan FİLMDEN KARELER General Format : Matroska File size : 2.23 GiB Duration : 1 h 28 min Overall bit rate : 3 601 kb/s Frame rate : 25.000 FPS Video Format : AVC Format/Info : Advanced Video Codec Duration : 1 h 28 min Width : 1 920 pixels Height : 1 080 pixels Frame rate : 25.000 FPS Stream size : 2.15 GiB (96%) Audio Format : AAC LC Format/Info : Advanced Audio Codec Low Complexity Duration : 1 h 28 min Channel(s) : 2 channels Frame rate : 46.875 FPS (1024 SPF) Stream size : 81.5 MiB (4%) Language : Türkçe İNDİRME LİNKİ SuperUp turbobit.net, gofile.io, doodrive.com, megaup.net, send.cm, 1fichier.com, mixdrop.ag, pixeldrain.com, streamtape.com, rapidgator.net
    2 Cevap | 8 Görüntüleme
  • SuperUp nickli üyeye ait kullanıcı resmi (Avatar)
    4 Saat önce
    Harley Davidson ve Marlboro Man - Harley Davidson and the Marlboro Man (1991) 1080p Türkçe Altyazılı AMZN WEB-DL x264 - HdT IMDB LİNKİ Tür: Aksiyon, Gerilim Sıkı motorcu Harley (Mickey Rourke) ve en az onun kadar zorlu kovboy arkadaşı Marlboro (Don Johnson), bir bankanın, eski dostlarının barını yıkmaya çalıştığını öğrenirler. Bu fırsatçı bankaya, haddini bildirmek için tehlikeli bir plan yaparlar. Ve tabi ki, işler hiç de planladıkları gibi gitmeyecektir.. Oyuncular: Mickey Rourke, Don Johnson, Chelsea Field, Daniel Baldwin, Giancarlo Esposito, Vanessa Williams, Robert Ginty, Tom Sizemore, Tia Carrere, Julius Harris FİLM TANITIM LİNKİ FİLMDEN KARELER General Format : Matroska File size : 3.01 GiB Duration : 1 h 38 min Overall bit rate : 4 384 kb/s Frame rate : 23.976 FPS Video Format : AVC Format/Info : Advanced Video Codec Duration : 1 h 38 min Width : 1 920 pixels Height : 1 040 pixels Frame rate : 23.976 (24000/1001) FPS Stream size : 2.88 GiB (96%) Audio Format : AAC LC Format/Info : Advanced Audio Codec Low Complexity Duration : 1 h 38 min Channel(s) : 2 channels Frame rate : 46.875 FPS (1024 SPF) Stream size : 135 MiB (4%) Language : English Altyazı #1 Format : UTF-8 Duration : 1 h 33 min Frame rate : 0.147 FPS Stream size : 22.7 KiB (0%) Language : Japanese Altyazı #2 Format : UTF-8 Duration : 1 h 37 min Frame rate : 0.185 FPS Stream size : 43.4 KiB (0%) Language : Arabic Altyazı #3 Format : UTF-8 Duration : 1 h 37 min Frame rate : 0.182 FPS Stream size : 28.9 KiB (0%) Language : Türkçe Altyazı #4 Format : UTF-8 Duration : 1 h 33 min Frame rate : 0.132 FPS Stream size : 25.4 KiB (0%) Language : Swedish Altyazı #5 Format : UTF-8 Duration : 1 h 38 min Frame rate : 0.127 FPS Stream size : 24.5 KiB (0%) Language : Finnish Altyazı #6 Format : UTF-8 Duration : 1 h 13 min Frame rate : 0.003 FPS Stream size : 525 Bytes (0%) Language : Portuguese Altyazı #7 Format : UTF-8 Duration : 1 h 33 min Frame rate : 0.182 FPS Stream size : 30.8 KiB (0%) Language : Portuguese Altyazı #8 Format : UTF-8 Duration : 1 h 38 min Frame rate : 0.156 FPS Stream size : 24.0 KiB (0%) Language : Polish Altyazı #9 Format : UTF-8 Duration : 1 h 33 min Frame rate : 0.125 FPS Stream size : 23.9 KiB (0%) Language : Dutch Altyazı #10 Format : UTF-8 Duration : 13 min 56 s Frame rate : 0.006 FPS Stream size : 221 Bytes (0%) Language : Italian Altyazı #11 Format : UTF-8 Duration : 1 h 33 min Frame rate : 0.132 FPS Stream size : 28.9 KiB (0%) Language : Italian Altyazı #12 Format : UTF-8 Duration : 29 min 31 s Frame rate : 0.004 FPS Stream size : 257 Bytes (0%) Language : French Altyazı #13 Format : UTF-8 Duration : 1 h 38 min Frame rate : 0.126 FPS Stream size : 28.6 KiB (0%) Language : French Altyazı #14 Format : UTF-8 Duration : 1 h 13 min Frame rate : 0.003 FPS Stream size : 626 Bytes (0%) Language : Spanish Altyazı #15 Format : UTF-8 Duration : 1 h 33 min Frame rate : 0.182 FPS Stream size : 29.6 KiB (0%) Language : Spanish Altyazı #16 Format : UTF-8 Duration : 29 min 31 s Frame rate : 0.005 FPS Stream size : 234 Bytes (0%) Language : Spanish Altyazı #17 Format : UTF-8 Duration : 1 h 33 min Frame rate : 0.132 FPS Stream size : 27.8 KiB (0%) Language : Spanish Altyazı #18 Format : UTF-8 Duration : 1 h 37 min Frame rate : 0.210 FPS Stream size : 34.9 KiB (0%) Language : English Altyazı #19 Format : UTF-8 Duration : 1 h 38 min Frame rate : 0.141 FPS Stream size : 29.6 KiB (0%) Language : German Altyazı #20 Format : UTF-8 Duration : 1 h 38 min Frame rate : 0.126 FPS Stream size : 27.3 KiB (0%) Language : Danish Altyazı #21 Format : UTF-8 Duration : 1 h 38 min Frame rate : 0.126 FPS Stream size : 26.2 KiB (0%) Language : Norwegian Nynorsk İNDİRME LİNKİ SuperUp turbobit.net, gofile.io, doodrive.com, megaup.net, send.cm, 1fichier.com, mixdrop.ag, pixeldrain.com, streamtape.com, rapidgator.net
    0 Cevap | 4 Görüntüleme
  • SuperUp nickli üyeye ait kullanıcı resmi (Avatar)
    4 Saat önce
    Harley Davidson ve Marlboro Man - Harley Davidson and the Marlboro Man (1991) 1080p Türkçe Altyazılı AMZN WEB-DL x264 - HdT IMDB LİNKİ Tür: Aksiyon, Gerilim Sıkı motorcu Harley (Mickey Rourke) ve en az onun kadar zorlu kovboy arkadaşı Marlboro (Don Johnson), bir bankanın, eski dostlarının barını yıkmaya çalıştığını öğrenirler. Bu fırsatçı bankaya, haddini bildirmek için tehlikeli bir plan yaparlar. Ve tabi ki, işler hiç de planladıkları gibi gitmeyecektir.. Oyuncular: Mickey Rourke, Don Johnson, Chelsea Field, Daniel Baldwin, Giancarlo Esposito, Vanessa Williams, Robert Ginty, Tom Sizemore, Tia Carrere, Julius Harris FİLM TANITIM LİNKİ FİLMDEN KARELER General Format : Matroska File size : 3.01 GiB Duration : 1 h 38 min Overall bit rate : 4 384 kb/s Frame rate : 23.976 FPS Video Format : AVC Format/Info : Advanced Video Codec Duration : 1 h 38 min Width : 1 920 pixels Height : 1 040 pixels Frame rate : 23.976 (24000/1001) FPS Stream size : 2.88 GiB (96%) Audio Format : AAC LC Format/Info : Advanced Audio Codec Low Complexity Duration : 1 h 38 min Channel(s) : 2 channels Frame rate : 46.875 FPS (1024 SPF) Stream size : 135 MiB (4%) Language : English Altyazı #1 Format : UTF-8 Duration : 1 h 33 min Frame rate : 0.147 FPS Stream size : 22.7 KiB (0%) Language : Japanese Altyazı #2 Format : UTF-8 Duration : 1 h 37 min Frame rate : 0.185 FPS Stream size : 43.4 KiB (0%) Language : Arabic Altyazı #3 Format : UTF-8 Duration : 1 h 37 min Frame rate : 0.182 FPS Stream size : 28.9 KiB (0%) Language : Türkçe Altyazı #4 Format : UTF-8 Duration : 1 h 33 min Frame rate : 0.132 FPS Stream size : 25.4 KiB (0%) Language : Swedish Altyazı #5 Format : UTF-8 Duration : 1 h 38 min Frame rate : 0.127 FPS Stream size : 24.5 KiB (0%) Language : Finnish Altyazı #6 Format : UTF-8 Duration : 1 h 13 min Frame rate : 0.003 FPS Stream size : 525 Bytes (0%) Language : Portuguese Altyazı #7 Format : UTF-8 Duration : 1 h 33 min Frame rate : 0.182 FPS Stream size : 30.8 KiB (0%) Language : Portuguese Altyazı #8 Format : UTF-8 Duration : 1 h 38 min Frame rate : 0.156 FPS Stream size : 24.0 KiB (0%) Language : Polish Altyazı #9 Format : UTF-8 Duration : 1 h 33 min Frame rate : 0.125 FPS Stream size : 23.9 KiB (0%) Language : Dutch Altyazı #10 Format : UTF-8 Duration : 13 min 56 s Frame rate : 0.006 FPS Stream size : 221 Bytes (0%) Language : Italian Altyazı #11 Format : UTF-8 Duration : 1 h 33 min Frame rate : 0.132 FPS Stream size : 28.9 KiB (0%) Language : Italian Altyazı #12 Format : UTF-8 Duration : 29 min 31 s Frame rate : 0.004 FPS Stream size : 257 Bytes (0%) Language : French Altyazı #13 Format : UTF-8 Duration : 1 h 38 min Frame rate : 0.126 FPS Stream size : 28.6 KiB (0%) Language : French Altyazı #14 Format : UTF-8 Duration : 1 h 13 min Frame rate : 0.003 FPS Stream size : 626 Bytes (0%) Language : Spanish Altyazı #15 Format : UTF-8 Duration : 1 h 33 min Frame rate : 0.182 FPS Stream size : 29.6 KiB (0%) Language : Spanish Altyazı #16 Format : UTF-8 Duration : 29 min 31 s Frame rate : 0.005 FPS Stream size : 234 Bytes (0%) Language : Spanish Altyazı #17 Format : UTF-8 Duration : 1 h 33 min Frame rate : 0.132 FPS Stream size : 27.8 KiB (0%) Language : Spanish Altyazı #18 Format : UTF-8 Duration : 1 h 37 min Frame rate : 0.210 FPS Stream size : 34.9 KiB (0%) Language : English Altyazı #19 Format : UTF-8 Duration : 1 h 38 min Frame rate : 0.141 FPS Stream size : 29.6 KiB (0%) Language : German Altyazı #20 Format : UTF-8 Duration : 1 h 38 min Frame rate : 0.126 FPS Stream size : 27.3 KiB (0%) Language : Danish Altyazı #21 Format : UTF-8 Duration : 1 h 38 min Frame rate : 0.126 FPS Stream size : 26.2 KiB (0%) Language : Norwegian Nynorsk İNDİRME LİNKİ SuperUp turbobit.net, gofile.io, doodrive.com, megaup.net, send.cm, 1fichier.com, mixdrop.ag, pixeldrain.com, streamtape.com, rapidgator.net
    2 Cevap | 9 Görüntüleme
  • SuperUp nickli üyeye ait kullanıcı resmi (Avatar)
    4 Saat önce
    Genius S01 1080p DUAL WEB-DL x264 IMDB LİNKİ Tür: Dram Einstein’ın başarılarını ve hayatının bilinmeyen yönlerini anlatan “Deha”, öğretim görevlisi pozisyonlarında yer almayı başaramayan, doktoraya kabul edilmeyen fakat hayal gücü kuvvetli ve isyankar olan bir patent görevlisinin nasıl evrenin ve atomun sırlarını gün yüzüne çıkardığını anlatıyor. Her bölüm Einstein’in olağanüstü bilimsel başarıları ile beraber bu güne kadar çok fazla konuşulmamış karmaşık ve tutkulu kişisel hayatına da ışık tutuyor. FİLMDEN KARELER General Format : Matroska File size : 3.19 GiB Duration : 1 h 4 min Overall bit rate mode : Variable Overall bit rate : 7 051 kb/s Frame rate : 23.976 FPS Video Format : AVC Format/Info : Advanced Video Codec Duration : 1 h 4 min Width : 1 920 pixels Height : 1 080 pixels Frame rate : 23.976 (24000/1001) FPS Stream size : 3.02 GiB (95%) Ses 1 Format : AAC LC Format/Info : Advanced Audio Codec Low Complexity Duration : 1 h 4 min Channel(s) : 2 channels Frame rate : 46.875 FPS (1024 SPF) Stream size : 58.2 MiB (2%) Language : Türkçe Ses 2 Format : E-AC-3 Duration : 1 h 4 min Channel(s) : 6 channels Frame rate : 31.250 FPS (1536 SPF) Stream size : 119 MiB (4%) Language : English Format : UTF-8 Duration : 1 h 3 min Frame rate : 0.277 FPS Stream size : 33.2 KiB (0%) Language : Türkçe BÖLÜM 001 BÖLÜM 002 BÖLÜM 003 BÖLÜM 004 BÖLÜM 005 BÖLÜM 006 BÖLÜM 007 BÖLÜM 008 BÖLÜM 009 BÖLÜM 010
    0 Cevap | 5 Görüntüleme
  • SuperUp nickli üyeye ait kullanıcı resmi (Avatar)
    4 Saat önce
    Deha - Genius S02 1080p DUAL WEB-DL x264 IMDB LİNKİ Tür: Dram Einstein’ın başarılarını ve hayatının bilinmeyen yönlerini anlatan “Deha”, öğretim görevlisi pozisyonlarında yer almayı başaramayan, doktoraya kabul edilmeyen fakat hayal gücü kuvvetli ve isyankar olan bir patent görevlisinin nasıl evrenin ve atomun sırlarını gün yüzüne çıkardığını anlatıyor. Her bölüm Einstein’in olağanüstü bilimsel başarıları ile beraber bu güne kadar çok fazla konuşulmamış karmaşık ve tutkulu kişisel hayatına da ışık tutuyor. FİLMDEN KARELER General Format : Matroska File size : 2.56 GiB Duration : 50 min 12 s Overall bit rate mode : Variable Overall bit rate : 7 288 kb/s Frame rate : 23.976 FPS Video Format : AVC Format/Info : Advanced Video Codec Duration : 50 min 11 s Width : 1 920 pixels Height : 1 080 pixels Frame rate : 23.976 (24000/1001) FPS Stream size : 2.42 GiB (95%) Ses 1 Format : AAC LC Format/Info : Advanced Audio Codec Low Complexity Duration : 50 min 12 s Channel(s) : 2 channels Frame rate : 46.875 FPS (1024 SPF) Stream size : 45.0 MiB (2%) Language : Türkçe Ses 2 Format : E-AC-3 Duration : 50 min 11 s Channel(s) : 6 channels Frame rate : 31.250 FPS (1536 SPF) Stream size : 91.9 MiB (4%) Language : English Format : UTF-8 Duration : 49 min 8 s Frame rate : 0.233 FPS Stream size : 21.9 KiB (0%) Language : Türkçe BÖLÜM 001 BÖLÜM 002 BÖLÜM 003 BÖLÜM 004 BÖLÜM 005 BÖLÜM 006 BÖLÜM 007 BÖLÜM 008 BÖLÜM 009 BÖLÜM 010
    0 Cevap | 5 Görüntüleme
  • SuperUp nickli üyeye ait kullanıcı resmi (Avatar)
    4 Saat önce
    Deha - Genius S03 1080p DUAL WEB-DL x264 IMDB LİNKİ Tür: Dram Einstein’ın başarılarını ve hayatının bilinmeyen yönlerini anlatan “Deha”, öğretim görevlisi pozisyonlarında yer almayı başaramayan, doktoraya kabul edilmeyen fakat hayal gücü kuvvetli ve isyankar olan bir patent görevlisinin nasıl evrenin ve atomun sırlarını gün yüzüne çıkardığını anlatıyor. Her bölüm Einstein’in olağanüstü bilimsel başarıları ile beraber bu güne kadar çok fazla konuşulmamış karmaşık ve tutkulu kişisel hayatına da ışık tutuyor. FİLMDEN KARELER General Format : Matroska File size : 3.01 GiB Duration : 57 min 13 s Overall bit rate mode : Variable Overall bit rate : 7 521 kb/s Frame rate : 23.976 FPS Video Format : AVC Format/Info : Advanced Video Codec Duration : 57 min 13 s Width : 1 920 pixels Height : 1 080 pixels Frame rate : 23.976 (24000/1001) FPS Stream size : 2.85 GiB (95%) Ses 1 Format : AAC LC Format/Info : Advanced Audio Codec Low Complexity Duration : 57 min 13 s Channel(s) : 2 channels Frame rate : 46.875 FPS (1024 SPF) Stream size : 51.3 MiB (2%) Language : Türkçe Ses 2 Format : E-AC-3 Duration : 57 min 13 s Channel(s) : 6 channels Frame rate : 31.250 FPS (1536 SPF) Stream size : 105 MiB (3%) Language : English Format : UTF-8 Duration : 55 min 50 s Frame rate : 0.239 FPS Stream size : 28.4 KiB (0%) Language : Türkçe BÖLÜM 001 BÖLÜM 002 BÖLÜM 003 BÖLÜM 004 BÖLÜM 005 BÖLÜM 006 BÖLÜM 007 BÖLÜM 008
    0 Cevap | 5 Görüntüleme
  • SuperUp nickli üyeye ait kullanıcı resmi (Avatar)
    4 Saat önce
    Deha - Genius S03 1080p DUAL WEB-DL x264 IMDB LİNKİ Tür: Dram Einstein’ın başarılarını ve hayatının bilinmeyen yönlerini anlatan “Deha”, öğretim görevlisi pozisyonlarında yer almayı başaramayan, doktoraya kabul edilmeyen fakat hayal gücü kuvvetli ve isyankar olan bir patent görevlisinin nasıl evrenin ve atomun sırlarını gün yüzüne çıkardığını anlatıyor. Her bölüm Einstein’in olağanüstü bilimsel başarıları ile beraber bu güne kadar çok fazla konuşulmamış karmaşık ve tutkulu kişisel hayatına da ışık tutuyor. FİLMDEN KARELER General Format : Matroska File size : 3.01 GiB Duration : 57 min 13 s Overall bit rate mode : Variable Overall bit rate : 7 521 kb/s Frame rate : 23.976 FPS Video Format : AVC Format/Info : Advanced Video Codec Duration : 57 min 13 s Width : 1 920 pixels Height : 1 080 pixels Frame rate : 23.976 (24000/1001) FPS Stream size : 2.85 GiB (95%) Ses 1 Format : AAC LC Format/Info : Advanced Audio Codec Low Complexity Duration : 57 min 13 s Channel(s) : 2 channels Frame rate : 46.875 FPS (1024 SPF) Stream size : 51.3 MiB (2%) Language : Türkçe Ses 2 Format : E-AC-3 Duration : 57 min 13 s Channel(s) : 6 channels Frame rate : 31.250 FPS (1536 SPF) Stream size : 105 MiB (3%) Language : English Format : UTF-8 Duration : 55 min 50 s Frame rate : 0.239 FPS Stream size : 28.4 KiB (0%) Language : Türkçe BÖLÜM 001 BÖLÜM 002 BÖLÜM 003 BÖLÜM 004 BÖLÜM 005 BÖLÜM 006 BÖLÜM 007 BÖLÜM 008
    2 Cevap | 24 Görüntüleme
  • SuperUp nickli üyeye ait kullanıcı resmi (Avatar)
    4 Saat önce
    Deha - Genius S02 1080p DUAL WEB-DL x264 IMDB LİNKİ Tür: Dram Einstein’ın başarılarını ve hayatının bilinmeyen yönlerini anlatan “Deha”, öğretim görevlisi pozisyonlarında yer almayı başaramayan, doktoraya kabul edilmeyen fakat hayal gücü kuvvetli ve isyankar olan bir patent görevlisinin nasıl evrenin ve atomun sırlarını gün yüzüne çıkardığını anlatıyor. Her bölüm Einstein’in olağanüstü bilimsel başarıları ile beraber bu güne kadar çok fazla konuşulmamış karmaşık ve tutkulu kişisel hayatına da ışık tutuyor. FİLMDEN KARELER General Format : Matroska File size : 2.56 GiB Duration : 50 min 12 s Overall bit rate mode : Variable Overall bit rate : 7 288 kb/s Frame rate : 23.976 FPS Video Format : AVC Format/Info : Advanced Video Codec Duration : 50 min 11 s Width : 1 920 pixels Height : 1 080 pixels Frame rate : 23.976 (24000/1001) FPS Stream size : 2.42 GiB (95%) Ses 1 Format : AAC LC Format/Info : Advanced Audio Codec Low Complexity Duration : 50 min 12 s Channel(s) : 2 channels Frame rate : 46.875 FPS (1024 SPF) Stream size : 45.0 MiB (2%) Language : Türkçe Ses 2 Format : E-AC-3 Duration : 50 min 11 s Channel(s) : 6 channels Frame rate : 31.250 FPS (1536 SPF) Stream size : 91.9 MiB (4%) Language : English Format : UTF-8 Duration : 49 min 8 s Frame rate : 0.233 FPS Stream size : 21.9 KiB (0%) Language : Türkçe BÖLÜM 001 BÖLÜM 002 BÖLÜM 003 BÖLÜM 004 BÖLÜM 005 BÖLÜM 006 BÖLÜM 007 BÖLÜM 008 BÖLÜM 009 BÖLÜM 010
    1 Cevap | 6 Görüntüleme
  • SuperUp nickli üyeye ait kullanıcı resmi (Avatar)
    4 Saat önce
    Genius S01 1080p DUAL WEB-DL x264 IMDB LİNKİ Tür: Dram Einstein’ın başarılarını ve hayatının bilinmeyen yönlerini anlatan “Deha”, öğretim görevlisi pozisyonlarında yer almayı başaramayan, doktoraya kabul edilmeyen fakat hayal gücü kuvvetli ve isyankar olan bir patent görevlisinin nasıl evrenin ve atomun sırlarını gün yüzüne çıkardığını anlatıyor. Her bölüm Einstein’in olağanüstü bilimsel başarıları ile beraber bu güne kadar çok fazla konuşulmamış karmaşık ve tutkulu kişisel hayatına da ışık tutuyor. FİLMDEN KARELER General Format : Matroska File size : 3.19 GiB Duration : 1 h 4 min Overall bit rate mode : Variable Overall bit rate : 7 051 kb/s Frame rate : 23.976 FPS Video Format : AVC Format/Info : Advanced Video Codec Duration : 1 h 4 min Width : 1 920 pixels Height : 1 080 pixels Frame rate : 23.976 (24000/1001) FPS Stream size : 3.02 GiB (95%) Ses 1 Format : AAC LC Format/Info : Advanced Audio Codec Low Complexity Duration : 1 h 4 min Channel(s) : 2 channels Frame rate : 46.875 FPS (1024 SPF) Stream size : 58.2 MiB (2%) Language : Türkçe Ses 2 Format : E-AC-3 Duration : 1 h 4 min Channel(s) : 6 channels Frame rate : 31.250 FPS (1536 SPF) Stream size : 119 MiB (4%) Language : English Format : UTF-8 Duration : 1 h 3 min Frame rate : 0.277 FPS Stream size : 33.2 KiB (0%) Language : Türkçe BÖLÜM 001 BÖLÜM 002 BÖLÜM 003 BÖLÜM 004 BÖLÜM 005 BÖLÜM 006 BÖLÜM 007 BÖLÜM 008 BÖLÜM 009 BÖLÜM 010
    1 Cevap | 7 Görüntüleme
  • SuperUp nickli üyeye ait kullanıcı resmi (Avatar)
    5 Saat önce
    Sayen The Huntress - Sayen: La Cazadora (2024) 1080p Türkçe Altyazılı AMZN WEB-DL x264 - HdT IMDB LİNKİ Tür: Aksiyon, Gerilim Fisk'i tek başına deviremeyeceğini anlayan Sayen, Fisk'in kontrolsüz yağmalamasını sonsuza dek ifşa etme ve sona erdirme planı olan bir yeraltı direniş grubuyla bir araya gelir. Oyuncular: Rallen Montenegro, Aaron Diaz, Eva De Dominici, Alfredo Castro, Eyal Meyer, Amalia Kassai, Dindi Jane, Steevens Benjamin, Camilo Arancibia, FİLMDEN KARELER General Format : Matroska File size : 3.77 GiB Duration : 1 h 28 min Overall bit rate : 6 097 kb/s Frame rate : 23.976 FPS Video Format : AVC Format/Info : Advanced Video Codec Duration : 1 h 28 min Width : 1 920 pixels Height : 960 pixels Frame rate : 23.976 (24000/1001) FPS Stream size : 3.65 GiB (97%) Audio Format : AAC LC Format/Info : Advanced Audio Codec Low Complexity Duration : 1 h 28 min Channel(s) : 2 channels Frame rate : 46.875 FPS (1024 SPF) Stream size : 122 MiB (3%) Language : Spanish Altyazı #1 Format : UTF-8 Duration : 1 h 26 min Frame rate : 0.185 FPS Stream size : 31.8 KiB (0%) Language : Korean Altyazı #2 Format : UTF-8 Duration : 1 h 19 min Frame rate : 0.016 FPS Stream size : 2.17 KiB (0%) Language : Japanese Altyazı #3 Format : UTF-8 Duration : 1 h 26 min Frame rate : 0.171 FPS Stream size : 25.0 KiB (0%) Language : Japanese Altyazı #4 Format : UTF-8 Duration : 1 h 26 min Frame rate : 0.185 FPS Stream size : 26.0 KiB (0%) Language : Chinese Altyazı #5 Format : UTF-8 Duration : 1 h 26 min Frame rate : 0.185 FPS Stream size : 25.2 KiB (0%) Language : Chinese Altyazı #6 Format : UTF-8 Duration : 1 h 26 min Frame rate : 0.185 FPS Stream size : 45.8 KiB (0%) Language : Arabic Altyazı #7 Format : UTF-8 Duration : 1 h 26 min Frame rate : 0.185 FPS Stream size : 43.8 KiB (0%) Language : Russian Altyazı #8 Format : UTF-8 Duration : 1 h 26 min Frame rate : 0.185 FPS Stream size : 50.2 KiB (0%) Language : Greek Altyazı #9 Format : UTF-8 Duration : 1 h 26 min Frame rate : 0.183 FPS Stream size : 26.6 KiB (0%) Language : Czech Altyazı #10 Format : UTF-8 Duration : 1 h 26 min Frame rate : 0.184 FPS Stream size : 25.7 KiB (0%) Language : Türkçe Altyazı #11 Format : UTF-8 Duration : 1 h 26 min Frame rate : 0.185 FPS Stream size : 26.2 KiB (0%) Language : Swedish Altyazı #12 Format : UTF-8 Duration : 1 h 26 min Frame rate : 0.184 FPS Stream size : 25.6 KiB (0%) Language : Finnish Altyazı #13 Format : UTF-8 Duration : 1 h 26 min Frame rate : 0.184 FPS Stream size : 29.2 KiB (0%) Language : Romanian Altyazı #14 Format : UTF-8 Duration : 1 h 19 min Frame rate : 0.015 FPS Stream size : 1.79 KiB (0%) Language : Portuguese Altyazı #15 Format : UTF-8 Duration : 1 h 26 min Frame rate : 0.185 FPS Stream size : 27.7 KiB (0%) Language : Portuguese Altyazı #16 Format : UTF-8 Duration : 1 h 26 min Frame rate : 0.185 FPS Stream size : 25.4 KiB (0%) Language : Portuguese Altyazı #17 Format : UTF-8 Duration : 1 h 19 min Frame rate : 0.003 FPS Stream size : 222 Bytes (0%) Language : Polish Altyazı #18 Format : UTF-8 Duration : 1 h 26 min Frame rate : 0.184 FPS Stream size : 25.6 KiB (0%) Language : Polish Altyazı #19 Format : UTF-8 Duration : 1 h 26 min Frame rate : 0.185 FPS Stream size : 25.7 KiB (0%) Language : Norwegian Bokmal Altyazı #20 Format : UTF-8 Duration : 1 h 26 min Frame rate : 0.185 FPS Stream size : 25.0 KiB (0%) Language : Dutch Altyazı #21 Format : UTF-8 Duration : 1 h 26 min Frame rate : 0.185 FPS Stream size : 27.3 KiB (0%) Language : Hungarian Altyazı #22 Format : UTF-8 Duration : 1 h 19 min Frame rate : 0.014 FPS Stream size : 1.74 KiB (0%) Language : Italian Altyazı #23 Format : UTF-8 Duration : 1 h 26 min Frame rate : 0.185 FPS Stream size : 24.8 KiB (0%) Language : Italian Altyazı #24 Format : UTF-8 Duration : 1 h 19 min Frame rate : 0.016 FPS Stream size : 1.86 KiB (0%) Language : French Altyazı #25 Format : UTF-8 Duration : 1 h 26 min Frame rate : 0.185 FPS Stream size : 25.7 KiB (0%) Language : French Altyazı #26 Format : UTF-8 Duration : 1 h 13 min Frame rate : 0.017 FPS Stream size : 2.30 KiB (0%) Language : Spanish Altyazı #27 Format : UTF-8 Duration : 1 h 26 min Frame rate : 0.227 FPS Stream size : 33.6 KiB (0%) Language : Spanish Altyazı #28 Format : UTF-8 Duration : 1 h 19 min Frame rate : 0.010 FPS Stream size : 1.10 KiB (0%) Language : English Altyazı #29 Format : UTF-8 Duration : 1 h 26 min Frame rate : 0.180 FPS Stream size : 26.4 KiB (0%) Language : English Altyazı #30 Format : UTF-8 Duration : 1 h 16 min Frame rate : 0.009 FPS Stream size : 830 Bytes (0%) Language : German Altyazı #31 Format : UTF-8 Duration : 1 h 26 min Frame rate : 0.185 FPS Stream size : 27.2 KiB (0%) Language : German Altyazı #32 Format : UTF-8 Duration : 1 h 26 min Frame rate : 0.184 FPS Stream size : 24.4 KiB (0%) Language : Danish İNDİRME LİNKİ SuperUp turbobit.net, gofile.io, doodrive.com, megaup.net, send.cm, 1fichier.com, mixdrop.ag, pixeldrain.com, streamtape.com, rapidgator.net
    0 Cevap | 4 Görüntüleme
  • SuperUp nickli üyeye ait kullanıcı resmi (Avatar)
    5 Saat önce
    Sayen The Huntress - Sayen: La Cazadora (2024) 1080p Türkçe Altyazılı AMZN WEB-DL x264 - HdT IMDB LİNKİ Tür: Aksiyon, Gerilim Fisk'i tek başına deviremeyeceğini anlayan Sayen, Fisk'in kontrolsüz yağmalamasını sonsuza dek ifşa etme ve sona erdirme planı olan bir yeraltı direniş grubuyla bir araya gelir. Oyuncular: Rallen Montenegro, Aaron Diaz, Eva De Dominici, Alfredo Castro, Eyal Meyer, Amalia Kassai, Dindi Jane, Steevens Benjamin, Camilo Arancibia, FİLMDEN KARELER General Format : Matroska File size : 3.77 GiB Duration : 1 h 28 min Overall bit rate : 6 097 kb/s Frame rate : 23.976 FPS Video Format : AVC Format/Info : Advanced Video Codec Duration : 1 h 28 min Width : 1 920 pixels Height : 960 pixels Frame rate : 23.976 (24000/1001) FPS Stream size : 3.65 GiB (97%) Audio Format : AAC LC Format/Info : Advanced Audio Codec Low Complexity Duration : 1 h 28 min Channel(s) : 2 channels Frame rate : 46.875 FPS (1024 SPF) Stream size : 122 MiB (3%) Language : Spanish Altyazı #1 Format : UTF-8 Duration : 1 h 26 min Frame rate : 0.185 FPS Stream size : 31.8 KiB (0%) Language : Korean Altyazı #2 Format : UTF-8 Duration : 1 h 19 min Frame rate : 0.016 FPS Stream size : 2.17 KiB (0%) Language : Japanese Altyazı #3 Format : UTF-8 Duration : 1 h 26 min Frame rate : 0.171 FPS Stream size : 25.0 KiB (0%) Language : Japanese Altyazı #4 Format : UTF-8 Duration : 1 h 26 min Frame rate : 0.185 FPS Stream size : 26.0 KiB (0%) Language : Chinese Altyazı #5 Format : UTF-8 Duration : 1 h 26 min Frame rate : 0.185 FPS Stream size : 25.2 KiB (0%) Language : Chinese Altyazı #6 Format : UTF-8 Duration : 1 h 26 min Frame rate : 0.185 FPS Stream size : 45.8 KiB (0%) Language : Arabic Altyazı #7 Format : UTF-8 Duration : 1 h 26 min Frame rate : 0.185 FPS Stream size : 43.8 KiB (0%) Language : Russian Altyazı #8 Format : UTF-8 Duration : 1 h 26 min Frame rate : 0.185 FPS Stream size : 50.2 KiB (0%) Language : Greek Altyazı #9 Format : UTF-8 Duration : 1 h 26 min Frame rate : 0.183 FPS Stream size : 26.6 KiB (0%) Language : Czech Altyazı #10 Format : UTF-8 Duration : 1 h 26 min Frame rate : 0.184 FPS Stream size : 25.7 KiB (0%) Language : Türkçe Altyazı #11 Format : UTF-8 Duration : 1 h 26 min Frame rate : 0.185 FPS Stream size : 26.2 KiB (0%) Language : Swedish Altyazı #12 Format : UTF-8 Duration : 1 h 26 min Frame rate : 0.184 FPS Stream size : 25.6 KiB (0%) Language : Finnish Altyazı #13 Format : UTF-8 Duration : 1 h 26 min Frame rate : 0.184 FPS Stream size : 29.2 KiB (0%) Language : Romanian Altyazı #14 Format : UTF-8 Duration : 1 h 19 min Frame rate : 0.015 FPS Stream size : 1.79 KiB (0%) Language : Portuguese Altyazı #15 Format : UTF-8 Duration : 1 h 26 min Frame rate : 0.185 FPS Stream size : 27.7 KiB (0%) Language : Portuguese Altyazı #16 Format : UTF-8 Duration : 1 h 26 min Frame rate : 0.185 FPS Stream size : 25.4 KiB (0%) Language : Portuguese Altyazı #17 Format : UTF-8 Duration : 1 h 19 min Frame rate : 0.003 FPS Stream size : 222 Bytes (0%) Language : Polish Altyazı #18 Format : UTF-8 Duration : 1 h 26 min Frame rate : 0.184 FPS Stream size : 25.6 KiB (0%) Language : Polish Altyazı #19 Format : UTF-8 Duration : 1 h 26 min Frame rate : 0.185 FPS Stream size : 25.7 KiB (0%) Language : Norwegian Bokmal Altyazı #20 Format : UTF-8 Duration : 1 h 26 min Frame rate : 0.185 FPS Stream size : 25.0 KiB (0%) Language : Dutch Altyazı #21 Format : UTF-8 Duration : 1 h 26 min Frame rate : 0.185 FPS Stream size : 27.3 KiB (0%) Language : Hungarian Altyazı #22 Format : UTF-8 Duration : 1 h 19 min Frame rate : 0.014 FPS Stream size : 1.74 KiB (0%) Language : Italian Altyazı #23 Format : UTF-8 Duration : 1 h 26 min Frame rate : 0.185 FPS Stream size : 24.8 KiB (0%) Language : Italian Altyazı #24 Format : UTF-8 Duration : 1 h 19 min Frame rate : 0.016 FPS Stream size : 1.86 KiB (0%) Language : French Altyazı #25 Format : UTF-8 Duration : 1 h 26 min Frame rate : 0.185 FPS Stream size : 25.7 KiB (0%) Language : French Altyazı #26 Format : UTF-8 Duration : 1 h 13 min Frame rate : 0.017 FPS Stream size : 2.30 KiB (0%) Language : Spanish Altyazı #27 Format : UTF-8 Duration : 1 h 26 min Frame rate : 0.227 FPS Stream size : 33.6 KiB (0%) Language : Spanish Altyazı #28 Format : UTF-8 Duration : 1 h 19 min Frame rate : 0.010 FPS Stream size : 1.10 KiB (0%) Language : English Altyazı #29 Format : UTF-8 Duration : 1 h 26 min Frame rate : 0.180 FPS Stream size : 26.4 KiB (0%) Language : English Altyazı #30 Format : UTF-8 Duration : 1 h 16 min Frame rate : 0.009 FPS Stream size : 830 Bytes (0%) Language : German Altyazı #31 Format : UTF-8 Duration : 1 h 26 min Frame rate : 0.185 FPS Stream size : 27.2 KiB (0%) Language : German Altyazı #32 Format : UTF-8 Duration : 1 h 26 min Frame rate : 0.184 FPS Stream size : 24.4 KiB (0%) Language : Danish İNDİRME LİNKİ SuperUp turbobit.net, gofile.io, doodrive.com, megaup.net, send.cm, 1fichier.com, mixdrop.ag, pixeldrain.com, streamtape.com, rapidgator.net
    1 Cevap | 39 Görüntüleme
  • SuperUp nickli üyeye ait kullanıcı resmi (Avatar)
    5 Saat önce
    Düşler, Tutkular ve Suçlar - The Dreamers (2003) 1080p Türkçe Altyazılı WEB-DL MUBI H264 - HdT IMDB LİNKİ Tür: Dram, Romantik Öğrencilerin sesini yükseltmeye başladığı, o ünlü 68 Baharı'ndayız. Isabelle ve erkek kardeşi Theo, bohem aileleri tatilde olduğu için Paris'te yalnız kalmışlardır. Matthew isimli Amerikalı bir öğrenciyi evlerine davet ederler. Üçünün de ortak özelliği ise filmlere olan düşkünlükleridir. Zamanla, konukla aralarındaki ilişki tutkularının peşinden cinselliği tüm yönleriyle keşfedecekleri arzu dolu bir oyuna dönüşür. Dışarıda ise devrim sesini çoktan yükseltmeye başlamıştır. Oyuncular: Michael Pitt, Eva Green, Louis Garrel, Anna Chancellor, Robin Renucci, Florian Cadiou, Pierre Hancisse, Valentin Merlet FİLM TANITIM LİNKİ FİLMDEN KARELER General Format : Matroska File size : 4.28 GiB Duration : 1 h 54 min Overall bit rate : 5 333 kb/s Frame rate : 24.000 FPS Video Format : AVC Format/Info : Advanced Video Codec Duration : 1 h 54 min Width : 1 920 pixels Height : 1 036 pixels Frame rate : 24.000 FPS Stream size : 4.02 GiB (94%) Language : French Audio Format : AAC LC Format/Info : Advanced Audio Codec Low Complexity Duration : 1 h 54 min Channel(s) : 2 channels Frame rate : 46.875 FPS (1024 SPF) Stream size : 263 MiB (6%) Language : English Altyazı #1 Format : UTF-8 Duration : 1 h 47 min Frame rate : 0.149 FPS Stream size : 33.9 KiB (0%) Language : Türkçe Altyazı #2 Format : UTF-8 Duration : 1 h 46 min Frame rate : 0.138 FPS Stream size : 34.1 KiB (0%) Language : German Altyazı #3 Format : UTF-8 Duration : 1 h 47 min Frame rate : 0.148 FPS Stream size : 34.9 KiB (0%) Language : English Altyazı #4 Format : UTF-8 Duration : 1 h 47 min Frame rate : 0.159 FPS Stream size : 38.0 KiB (0%) Language : Dutch Altyazı #5 Format : UTF-8 Duration : 1 h 46 min Frame rate : 0.148 FPS Stream size : 31.4 KiB (0%) Language : Portuguese Altyazı #6 Format : UTF-8 Duration : 1 h 47 min Frame rate : 0.149 FPS Stream size : 36.9 KiB (0%) Language : Spanish İNDİRME LİNKİ SuperUp turbobit.net, gofile.io, doodrive.com, megaup.net, send.cm, 1fichier.com, mixdrop.ag, pixeldrain.com, streamtape.com, rapidgator.net
    0 Cevap | 5 Görüntüleme
  • SuperUp nickli üyeye ait kullanıcı resmi (Avatar)
    5 Saat önce
    Düşler, Tutkular ve Suçlar - The Dreamers (2003) 1080p Türkçe Altyazılı WEB-DL MUBI H264 - HdT IMDB LİNKİ Tür: Dram, Romantik Öğrencilerin sesini yükseltmeye başladığı, o ünlü 68 Baharı'ndayız. Isabelle ve erkek kardeşi Theo, bohem aileleri tatilde olduğu için Paris'te yalnız kalmışlardır. Matthew isimli Amerikalı bir öğrenciyi evlerine davet ederler. Üçünün de ortak özelliği ise filmlere olan düşkünlükleridir. Zamanla, konukla aralarındaki ilişki tutkularının peşinden cinselliği tüm yönleriyle keşfedecekleri arzu dolu bir oyuna dönüşür. Dışarıda ise devrim sesini çoktan yükseltmeye başlamıştır. Oyuncular: Michael Pitt, Eva Green, Louis Garrel, Anna Chancellor, Robin Renucci, Florian Cadiou, Pierre Hancisse, Valentin Merlet FİLM TANITIM LİNKİ FİLMDEN KARELER General Format : Matroska File size : 4.28 GiB Duration : 1 h 54 min Overall bit rate : 5 333 kb/s Frame rate : 24.000 FPS Video Format : AVC Format/Info : Advanced Video Codec Duration : 1 h 54 min Width : 1 920 pixels Height : 1 036 pixels Frame rate : 24.000 FPS Stream size : 4.02 GiB (94%) Language : French Audio Format : AAC LC Format/Info : Advanced Audio Codec Low Complexity Duration : 1 h 54 min Channel(s) : 2 channels Frame rate : 46.875 FPS (1024 SPF) Stream size : 263 MiB (6%) Language : English Altyazı #1 Format : UTF-8 Duration : 1 h 47 min Frame rate : 0.149 FPS Stream size : 33.9 KiB (0%) Language : Türkçe Altyazı #2 Format : UTF-8 Duration : 1 h 46 min Frame rate : 0.138 FPS Stream size : 34.1 KiB (0%) Language : German Altyazı #3 Format : UTF-8 Duration : 1 h 47 min Frame rate : 0.148 FPS Stream size : 34.9 KiB (0%) Language : English Altyazı #4 Format : UTF-8 Duration : 1 h 47 min Frame rate : 0.159 FPS Stream size : 38.0 KiB (0%) Language : Dutch Altyazı #5 Format : UTF-8 Duration : 1 h 46 min Frame rate : 0.148 FPS Stream size : 31.4 KiB (0%) Language : Portuguese Altyazı #6 Format : UTF-8 Duration : 1 h 47 min Frame rate : 0.149 FPS Stream size : 36.9 KiB (0%) Language : Spanish İNDİRME LİNKİ SuperUp turbobit.net, gofile.io, doodrive.com, megaup.net, send.cm, 1fichier.com, mixdrop.ag, pixeldrain.com, streamtape.com, rapidgator.net
    2 Cevap | 66 Görüntüleme
Daha Fazla Etkinlik
SuperUp Hakkinda

Temel Bilgiler

Signatürü


İstatistik


Toplam konu
Toplam konu
5686 (6.29%)
Günlük konu
84.28
Mesaj adeti
Mesaj adeti
6,024 (4.28%)
Günlük Ortalama Mesajlar
89.29
Son Mesaj
Lohusa (2024) 1080p NF WEB-DL H264 - SuperUp 9 Dakika önce
Toplam teşekkür
Toplam teşekkür
252
Genel Bilgiler
Son Aktivitesi
1 dakika önce
Üyelik tarihi
14.Nisan.2024
Tavsiye Puanı
1

3 Arkadaşlar

  1. Cloudrip Cloudrip isimli Üye şuanda  online konumundadır

    Filmrip Üye

    Cloudrip
  2. solofurky solofurky isimli Üye şimdilik offline konumundadır

    Filmrip Üye

    solofurky
  3. Spor01 Spor01 isimli Üye şuanda  online konumundadır

    Filmrip Üye

    Spor01
Arkadaşlar gösterme 1 to 3 of 3
View SuperUp's Blog

Recent Entries

Lohusa (2024) 1080p NF WEB-DL H264 - SuperUp

by SuperUp on 9 Dakika önce at 23:57
Lohusa (2024) 1080p NF WEB-DL H264 - SuperUp


IMDB LİNKİ

Tür: Komedi, Romantik

Lohusa, yeni ebeveyn olan bir anne ve babanın ilk 40 gün boyunca başlarına gelen komik olayları anlatıyor. Burcu ve Onur, çocuklarına kavuşacakları günü heyecanla bekleyen evli bir çiftir. Hamileliği boyunca doğumdan sonra onu bekleyen

Read More

Kardeş Takımı (2024) 1080p NF WEB-DL H264 DDP5.1 - TURG

by SuperUp on 1 saat önce at 22:57
Kardeş Takımı (2024) 1080p NF WEB-DL H264 DDP5.1 - TURG


IMDB LİNKİ

Tür: Aile, Komedi

Sıradan bir okul sabahına uyandığını zanneden 4 kardeş Deniz, Derya, Ali ve Yaz; anne babalarının aslında birer gizli ajan olduklarını öğrenirler. Evlerindeki gizli bir bölmede saklanan süper bilgisayar TA-OZ 4000 nam-ı diğer TAKOZ'un

Read More

Lohusa (2024) 1080p NF WEB-DL H264 DDP5.1 - TURG

by SuperUp on 1 saat önce at 22:47
Lohusa (2024) 1080p NF WEB-DL H264 DDP5.1 - TURG


IMDB LİNKİ

Tür: Komedi, Romantik

Lohusa, yeni ebeveyn olan bir anne ve babanın ilk 40 gün boyunca başlarına gelen komik olayları anlatıyor. Burcu ve Onur, çocuklarına kavuşacakları günü heyecanla bekleyen evli bir çiftir. Hamileliği boyunca doğumdan sonra onu bekleyen

Read More

Jesus Revolution (2023) 1080p DUAL BluRay x264 - HdT

by SuperUp on 1 saat önce at 22:35
Jesus Revolution (2023) 1080p DUAL BluRay x264 - HdT


IMDB LİNKİ

Tür: Dram, Tarih

Annesi Charlene tarafından büyütülen Greg Laurie ve bir grup genç, herhangi bir kurtuluş yolu ile gerçeği yeniden tanımlamak için güneşli Güney Kaliforniya'ya gider. Burada tesadüfen karizmatik bir hippi sokak vaizi olan Lonnie Frisbee

Read More

Casablanca (1942) 1080p DUAL BluRay x264 - TSRG

by SuperUp on 2 Saat önce at 21:21
Casablanca (1942) 1080p DUAL BluRay x264 - TSRG


IMDB LİNKİ

Tür: Dram, Romantik

İkinci dünya savaşında çok direnişli örgütün lideri Victor Lazlow Alman konsantrsayonu kampından kaçarak Casablanca'ya gelir. Amacı Lizbon'a oradanda ABD'ye iltica etmektir. Fakat bütün umutları şans eseri Casablanca'nın en meşhur gece

Read More

1 2 3 4 5 6 7 8 9 10 11 12 13 14 15 16 17 18 19 20 21 22 23 24 25 26 27 28 29 30 31 32 33 34 35 36 37 38 39 40 41 42 43 44 45 46 47 48 49 50 51 52 53 54 55 56 57 58 59 60 61 62 63 64 65 66 67 68 69 70 71 72 73 74 75 76 77 78 79 80 81 82 83 84 85 86 87 88 89 90 91 92 93 94 95 96 97 98 99 100 101 102 103 104 105 106 107 108 109 110 111 112 113 114 115 116 117 118 119 120 121 122 123 124 125 126 127 128 129 130 131 132 133 134 135 136 137 138 139 140 141 142 143 144 145 146 147 148 149 150 151 152 153 154 155 156 157 158 159 160 161 162 163 164 165 166 167 168 169 170 171 172 173 174 175 176 177 178 179 180 181 182 183 184 185 186 187 188 189 190 191 192 193 194 195 196 197 198 199 200 201 202 203 204 205 206 207 208 209 210