• SuperUp nickli üyeye ait kullanıcı resmi (Avatar)
    38 Dakika önce
    Hayali Arkadaşlar - IF (2024) 1080p Türkçe Altyazılı AMZN WEB-DL H264 DDP5.1 Atmos IMDB LİNKİ Tür: Komedi, Fantastik, Aile Yalnızlıktan muzdarip olan bir adam, hayali arkadaşlar görmenin ve onlarla konuşmanın inanılmaz gücünü keşfeder. Böylece yakınları tarafından unutulmuş birçok insanla arkadaş olur. Ancak içlerinden bazılarının karanlık tarafa geçmesi işlerin karışmasına neden olur. Oyuncular: Cailey Fleming, Ryan Reynolds, John Krasinski, Fiona Shaw, Steve Carell, Louis Gossett Jr., Alan Kim, Bobby Moynihan FİLM TANITIM LİNKİ FİLMDEN KARELER General Format : Matroska File size : 6.28 GiB Duration : 1 h 47 min Overall bit rate : 8 363 kb/s Frame rate : 23.976 FPS Video Format : AVC Format/Info : Advanced Video Codec Duration : 1 h 47 min Width : 1 920 pixels Height : 1 040 pixels Frame rate : 23.976 (24000/1001) FPS Stream size : 5.72 GiB (91%) Language : English (US) Audio Format : E-AC-3 JOC Duration : 1 h 44 min Channel(s) : 6 channels Frame rate : 31.250 FPS (1536 SPF) Stream size : 572 MiB (9%) Language : English (US) Altyazı #1 Format : UTF-8 Codec ID/Info : UTF-8 Plain Altyazı Duration : 1 h 42 min Frame rate : 0.191 FPS Stream size : 30.5 KiB (0%) Language : Türkçe Altyazı #2 Format : UTF-8 Codec ID/Info : UTF-8 Plain Altyazı Duration : 1 h 36 min Frame rate : 0.218 FPS Stream size : 32.7 KiB (0%) Language : English (US) Altyazı #3 Format : UTF-8 Codec ID/Info : UTF-8 Plain Altyazı Duration : 1 h 37 min Frame rate : 0.243 FPS Stream size : 37.2 KiB (0%) Language : English (US) Altyazı #4 Format : UTF-8 Codec ID/Info : UTF-8 Plain Altyazı Duration : 1 h 42 min Frame rate : 0.191 FPS Stream size : 31.7 KiB (0%) Language : French (CA) İNDİRME LİNKİ SuperUp turbobit.net, gofile.io, doodrive.com, megaup.net, send.cm, 1fichier.com, mixdrop.ag, pixeldrain.com, streamtape.com, rapidgator.net
    0 Cevap | 0 Görüntüleme
  • SuperUp nickli üyeye ait kullanıcı resmi (Avatar)
    38 Dakika önce
    Hayali Arkadaşlar - IF (2024) 1080p Türkçe Altyazılı AMZN WEB-DL H264 DDP5.1 Atmos IMDB LİNKİ Tür: Komedi, Fantastik, Aile Yalnızlıktan muzdarip olan bir adam, hayali arkadaşlar görmenin ve onlarla konuşmanın inanılmaz gücünü keşfeder. Böylece yakınları tarafından unutulmuş birçok insanla arkadaş olur. Ancak içlerinden bazılarının karanlık tarafa geçmesi işlerin karışmasına neden olur. Oyuncular: Cailey Fleming, Ryan Reynolds, John Krasinski, Fiona Shaw, Steve Carell, Louis Gossett Jr., Alan Kim, Bobby Moynihan FİLM TANITIM LİNKİ FİLMDEN KARELER General Format : Matroska File size : 6.28 GiB Duration : 1 h 47 min Overall bit rate : 8 363 kb/s Frame rate : 23.976 FPS Video Format : AVC Format/Info : Advanced Video Codec Duration : 1 h 47 min Width : 1 920 pixels Height : 1 040 pixels Frame rate : 23.976 (24000/1001) FPS Stream size : 5.72 GiB (91%) Language : English (US) Audio Format : E-AC-3 JOC Duration : 1 h 44 min Channel(s) : 6 channels Frame rate : 31.250 FPS (1536 SPF) Stream size : 572 MiB (9%) Language : English (US) Altyazı #1 Format : UTF-8 Codec ID/Info : UTF-8 Plain Altyazı Duration : 1 h 42 min Frame rate : 0.191 FPS Stream size : 30.5 KiB (0%) Language : Türkçe Altyazı #2 Format : UTF-8 Codec ID/Info : UTF-8 Plain Altyazı Duration : 1 h 36 min Frame rate : 0.218 FPS Stream size : 32.7 KiB (0%) Language : English (US) Altyazı #3 Format : UTF-8 Codec ID/Info : UTF-8 Plain Altyazı Duration : 1 h 37 min Frame rate : 0.243 FPS Stream size : 37.2 KiB (0%) Language : English (US) Altyazı #4 Format : UTF-8 Codec ID/Info : UTF-8 Plain Altyazı Duration : 1 h 42 min Frame rate : 0.191 FPS Stream size : 31.7 KiB (0%) Language : French (CA) İNDİRME LİNKİ SuperUp turbobit.net, gofile.io, doodrive.com, megaup.net, send.cm, 1fichier.com, mixdrop.ag, pixeldrain.com, streamtape.com, rapidgator.net
    0 Cevap | 4 Görüntüleme
  • SuperUp nickli üyeye ait kullanıcı resmi (Avatar)
    1 saat önce
    Hayali Arkadaşlar - IF (2024) m1080p Türkçe Altyazılı WEBRip x265 IMDB LİNKİ Tür: Komedi, Fantastik, Aile Yalnızlıktan muzdarip olan bir adam, hayali arkadaşlar görmenin ve onlarla konuşmanın inanılmaz gücünü keşfeder. Böylece yakınları tarafından unutulmuş birçok insanla arkadaş olur. Ancak içlerinden bazılarının karanlık tarafa geçmesi işlerin karışmasına neden olur. Oyuncular: Cailey Fleming, Ryan Reynolds, John Krasinski, Fiona Shaw, Steve Carell, Louis Gossett Jr., Alan Kim, Bobby Moynihan FİLM TANITIM LİNKİ FİLMDEN KARELER General Format : Matroska File size : 1.79 GiB Duration : 1 h 47 min Overall bit rate : 2 387 kb/s Frame rate : 23.976 FPS Video Format : HEVC Format/Info : High Efficiency Video Coding Duration : 1 h 47 min Width : 1 920 pixels Height : 1 040 pixels Frame rate : 23.976 (24000/1001) FPS Stream size : 1.50 GiB (84%) Audio Format : AAC LC Format/Info : Advanced Audio Codec Low Complexity Duration : 1 h 47 min Channel(s) : 6 channels Frame rate : 46.875 FPS (1024 SPF) Stream size : 295 MiB (16%) Format : UTF-8 Duration : 1 h 42 min Frame rate : 0.191 FPS Stream size : 30.5 KiB (0%) Language : Türkçe .mkv.html"] İNDİRME LİNKİ SuperUp turbobit.net, gofile.io, doodrive.com, megaup.net, send.cm, 1fichier.com, mixdrop.ag, pixeldrain.com, streamtape.com, rapidgator.net
    0 Cevap | 3 Görüntüleme
  • SuperUp nickli üyeye ait kullanıcı resmi (Avatar)
    1 saat önce
    Hayali Arkadaşlar - IF (2024) m1080p Türkçe Altyazılı WEBRip x265 IMDB LİNKİ Tür: Komedi, Fantastik, Aile Yalnızlıktan muzdarip olan bir adam, hayali arkadaşlar görmenin ve onlarla konuşmanın inanılmaz gücünü keşfeder. Böylece yakınları tarafından unutulmuş birçok insanla arkadaş olur. Ancak içlerinden bazılarının karanlık tarafa geçmesi işlerin karışmasına neden olur. Oyuncular: Cailey Fleming, Ryan Reynolds, John Krasinski, Fiona Shaw, Steve Carell, Louis Gossett Jr., Alan Kim, Bobby Moynihan FİLM TANITIM LİNKİ FİLMDEN KARELER General Format : Matroska File size : 1.79 GiB Duration : 1 h 47 min Overall bit rate : 2 387 kb/s Frame rate : 23.976 FPS Video Format : HEVC Format/Info : High Efficiency Video Coding Duration : 1 h 47 min Width : 1 920 pixels Height : 1 040 pixels Frame rate : 23.976 (24000/1001) FPS Stream size : 1.50 GiB (84%) Audio Format : AAC LC Format/Info : Advanced Audio Codec Low Complexity Duration : 1 h 47 min Channel(s) : 6 channels Frame rate : 46.875 FPS (1024 SPF) Stream size : 295 MiB (16%) Format : UTF-8 Duration : 1 h 42 min Frame rate : 0.191 FPS Stream size : 30.5 KiB (0%) Language : Türkçe .mkv.html"] İNDİRME LİNKİ SuperUp turbobit.net, gofile.io, doodrive.com, megaup.net, send.cm, 1fichier.com, mixdrop.ag, pixeldrain.com, streamtape.com, rapidgator.net
    0 Cevap | 11 Görüntüleme
  • SuperUp nickli üyeye ait kullanıcı resmi (Avatar)
    1 saat önce
    İhtiyarlara Yer Yok - No Country for Old Men (2007) 1080p DUAL BluRay REMUX AVC - TURG IMDB LİNKİ Tür: Suç, Dram, Gerilim Kötü giden bir uyuşturucu işi ve bir çanta dolusu para masum bir avcının, emektar bir şerifin ve acımasız bir kiralık katilin yolunu ıssız Batı Teksas çölünde kesiştirir. Oyuncular: Javier Bardem, Tommy Lee Jones, Josh Brolin, Woody Harrelson, Kelly Macdonald, Garret Dillahunt, Tess Harper, Barry Corbin, Stephen Root, Rodger Boyce FİLM TANITIM LİNKİ FİLMDEN KARELER General Format : Matroska File size : 27.0 GiB Duration : 2 h 2 min Overall bit rate mode : Variable Overall bit rate : 31.7 Mb/s Frame rate : 23.976 FPS Video Format : AVC Format/Info : Advanced Video Codec Duration : 2 h 2 min Width : 1 920 pixels Height : 1 080 pixels Frame rate : 23.976 (24000/1001) FPS Stream size : 19.9 GiB (73%) Language : English Ses 1 Format : PCM Duration : 2 h 2 min Channel(s) : 6 channels Frame rate : 30.000 FPS (1600 SPF) Stream size : 5.90 GiB (22%) Language : English Ses 2 Format : AC-3 Format/Info : Audio Coding 3 Duration : 2 h 2 min Channel(s) : 6 channels Frame rate : 31.250 FPS (1536 SPF) Stream size : 559 MiB (2%) Language : English Ses 3 Format : AC-3 Format/Info : Audio Coding 3 Duration : 2 h 2 min Channel(s) : 6 channels Frame rate : 31.250 FPS (1536 SPF) Stream size : 559 MiB (2%) Language : Türkçe Altyazı #1 Format : PGS Duration : 2 h 1 min Frame rate : 0.267 FPS Stream size : 11.4 MiB (0%) Language : Arabic Altyazı #2 Format : PGS Duration : 2 h 1 min Frame rate : 0.263 FPS Stream size : 17.8 MiB (0%) Language : Bulgarian Altyazı #3 Format : PGS Duration : 2 h 1 min Frame rate : 0.269 FPS Stream size : 17.5 MiB (0%) Language : Czech Altyazı #4 Format : PGS Duration : 2 h 1 min Frame rate : 0.261 FPS Stream size : 19.1 MiB (0%) Language : Estonian Altyazı #5 Format : PGS Duration : 1 h 55 min Frame rate : 0.279 FPS Stream size : 20.9 MiB (0%) Language : English Altyazı #6 Format : PGS Duration : 2 h 1 min Frame rate : 0.273 FPS Stream size : 13.1 MiB (0%) Language : Hebrew Altyazı #7 Format : PGS Duration : 2 h 1 min Frame rate : 0.265 FPS Stream size : 16.8 MiB (0%) Language : Croatian Altyazı #8 Format : PGS Duration : 2 h 1 min Frame rate : 0.263 FPS Stream size : 19.1 MiB (0%) Language : Icelandic Altyazı #9 Format : PGS Duration : 2 h 1 min Frame rate : 0.269 FPS Stream size : 17.4 MiB (0%) Language : Latvian Altyazı #10 Format : PGS Duration : 2 h 1 min Frame rate : 0.262 FPS Stream size : 18.4 MiB (0%) Language : Lithuanian Altyazı #11 Format : PGS Duration : 2 h 1 min Frame rate : 0.267 FPS Stream size : 18.6 MiB (0%) Language : Hungarian Altyazı #12 Format : PGS Duration : 2 h 1 min Frame rate : 0.267 FPS Stream size : 18.6 MiB (0%) Language : Polish Altyazı #13 Format : PGS Duration : 2 h 1 min Frame rate : 0.270 FPS Stream size : 19.8 MiB (0%) Language : Russian Altyazı #14 Format : PGS Duration : 2 h 1 min Frame rate : 0.268 FPS Stream size : 18.3 MiB (0%) Language : Romanian Altyazı #15 Format : PGS Duration : 2 h 1 min Frame rate : 0.260 FPS Stream size : 14.8 MiB (0%) Language : Slovenian Altyazı #16 Format : PGS Duration : 2 h 1 min Frame rate : 0.270 FPS Stream size : 20.1 MiB (0%) Language : Slovak Altyazı #17 Format : PGS Duration : 2 h 1 min Frame rate : 0.267 FPS Stream size : 18.2 MiB (0%) Language : Serbian Altyazı #18 Format : PGS Duration : 2 h 1 min Frame rate : 0.268 FPS Stream size : 20.8 MiB (0%) Language : Türkçe Altyazı #19 Format : PGS Duration : 2 h 1 min Frame rate : 0.266 FPS Stream size : 17.8 MiB (0%) Language : Ukrainian Altyazı #20 Format : PGS Duration : 2 h 1 min Frame rate : 0.388 FPS Stream size : 26.3 MiB (0%) Language : Chinese Altyazı #21 Format : PGS Duration : 2 h 1 min Frame rate : 0.388 FPS Stream size : 16.8 MiB (0%) Language : Chinese Altyazı #22 Format : PGS Duration : 2 h 1 min Frame rate : 0.388 FPS Stream size : 17.4 MiB (0%) Language : Chinese Altyazı #23 Format : PGS Duration : 2 h 1 min Frame rate : 0.388 FPS Stream size : 25.8 MiB (0%) Language : Chinese Altyazı #24 Format : PGS Duration : 2 h 1 min Frame rate : 0.388 FPS Stream size : 26.3 MiB (0%) Language : Chinese İNDİRME LİNKİ SuperUp turbobit.net, gofile.io, doodrive.com, megaup.net, send.cm, 1fichier.com, mixdrop.ag, pixeldrain.com, streamtape.com, rapidgator.net
    0 Cevap | 3 Görüntüleme
  • SuperUp nickli üyeye ait kullanıcı resmi (Avatar)
    1 saat önce
    İhtiyarlara Yer Yok - No Country for Old Men (2007) 1080p DUAL BluRay REMUX AVC - TURG IMDB LİNKİ Tür: Suç, Dram, Gerilim Kötü giden bir uyuşturucu işi ve bir çanta dolusu para masum bir avcının, emektar bir şerifin ve acımasız bir kiralık katilin yolunu ıssız Batı Teksas çölünde kesiştirir. Oyuncular: Javier Bardem, Tommy Lee Jones, Josh Brolin, Woody Harrelson, Kelly Macdonald, Garret Dillahunt, Tess Harper, Barry Corbin, Stephen Root, Rodger Boyce FİLM TANITIM LİNKİ FİLMDEN KARELER General Format : Matroska File size : 27.0 GiB Duration : 2 h 2 min Overall bit rate mode : Variable Overall bit rate : 31.7 Mb/s Frame rate : 23.976 FPS Video Format : AVC Format/Info : Advanced Video Codec Duration : 2 h 2 min Width : 1 920 pixels Height : 1 080 pixels Frame rate : 23.976 (24000/1001) FPS Stream size : 19.9 GiB (73%) Language : English Ses 1 Format : PCM Duration : 2 h 2 min Channel(s) : 6 channels Frame rate : 30.000 FPS (1600 SPF) Stream size : 5.90 GiB (22%) Language : English Ses 2 Format : AC-3 Format/Info : Audio Coding 3 Duration : 2 h 2 min Channel(s) : 6 channels Frame rate : 31.250 FPS (1536 SPF) Stream size : 559 MiB (2%) Language : English Ses 3 Format : AC-3 Format/Info : Audio Coding 3 Duration : 2 h 2 min Channel(s) : 6 channels Frame rate : 31.250 FPS (1536 SPF) Stream size : 559 MiB (2%) Language : Türkçe Altyazı #1 Format : PGS Duration : 2 h 1 min Frame rate : 0.267 FPS Stream size : 11.4 MiB (0%) Language : Arabic Altyazı #2 Format : PGS Duration : 2 h 1 min Frame rate : 0.263 FPS Stream size : 17.8 MiB (0%) Language : Bulgarian Altyazı #3 Format : PGS Duration : 2 h 1 min Frame rate : 0.269 FPS Stream size : 17.5 MiB (0%) Language : Czech Altyazı #4 Format : PGS Duration : 2 h 1 min Frame rate : 0.261 FPS Stream size : 19.1 MiB (0%) Language : Estonian Altyazı #5 Format : PGS Duration : 1 h 55 min Frame rate : 0.279 FPS Stream size : 20.9 MiB (0%) Language : English Altyazı #6 Format : PGS Duration : 2 h 1 min Frame rate : 0.273 FPS Stream size : 13.1 MiB (0%) Language : Hebrew Altyazı #7 Format : PGS Duration : 2 h 1 min Frame rate : 0.265 FPS Stream size : 16.8 MiB (0%) Language : Croatian Altyazı #8 Format : PGS Duration : 2 h 1 min Frame rate : 0.263 FPS Stream size : 19.1 MiB (0%) Language : Icelandic Altyazı #9 Format : PGS Duration : 2 h 1 min Frame rate : 0.269 FPS Stream size : 17.4 MiB (0%) Language : Latvian Altyazı #10 Format : PGS Duration : 2 h 1 min Frame rate : 0.262 FPS Stream size : 18.4 MiB (0%) Language : Lithuanian Altyazı #11 Format : PGS Duration : 2 h 1 min Frame rate : 0.267 FPS Stream size : 18.6 MiB (0%) Language : Hungarian Altyazı #12 Format : PGS Duration : 2 h 1 min Frame rate : 0.267 FPS Stream size : 18.6 MiB (0%) Language : Polish Altyazı #13 Format : PGS Duration : 2 h 1 min Frame rate : 0.270 FPS Stream size : 19.8 MiB (0%) Language : Russian Altyazı #14 Format : PGS Duration : 2 h 1 min Frame rate : 0.268 FPS Stream size : 18.3 MiB (0%) Language : Romanian Altyazı #15 Format : PGS Duration : 2 h 1 min Frame rate : 0.260 FPS Stream size : 14.8 MiB (0%) Language : Slovenian Altyazı #16 Format : PGS Duration : 2 h 1 min Frame rate : 0.270 FPS Stream size : 20.1 MiB (0%) Language : Slovak Altyazı #17 Format : PGS Duration : 2 h 1 min Frame rate : 0.267 FPS Stream size : 18.2 MiB (0%) Language : Serbian Altyazı #18 Format : PGS Duration : 2 h 1 min Frame rate : 0.268 FPS Stream size : 20.8 MiB (0%) Language : Türkçe Altyazı #19 Format : PGS Duration : 2 h 1 min Frame rate : 0.266 FPS Stream size : 17.8 MiB (0%) Language : Ukrainian Altyazı #20 Format : PGS Duration : 2 h 1 min Frame rate : 0.388 FPS Stream size : 26.3 MiB (0%) Language : Chinese Altyazı #21 Format : PGS Duration : 2 h 1 min Frame rate : 0.388 FPS Stream size : 16.8 MiB (0%) Language : Chinese Altyazı #22 Format : PGS Duration : 2 h 1 min Frame rate : 0.388 FPS Stream size : 17.4 MiB (0%) Language : Chinese Altyazı #23 Format : PGS Duration : 2 h 1 min Frame rate : 0.388 FPS Stream size : 25.8 MiB (0%) Language : Chinese Altyazı #24 Format : PGS Duration : 2 h 1 min Frame rate : 0.388 FPS Stream size : 26.3 MiB (0%) Language : Chinese İNDİRME LİNKİ SuperUp turbobit.net, gofile.io, doodrive.com, megaup.net, send.cm, 1fichier.com, mixdrop.ag, pixeldrain.com, streamtape.com, rapidgator.net
    0 Cevap | 3 Görüntüleme
  • SuperUp nickli üyeye ait kullanıcı resmi (Avatar)
    1 saat önce
    Gözü Tamamen Kapalı - Eyes Wide Shut (1999) 1080p Türkçe Altyazılı WEB-DL H264 DD5.1 IMDB LİNKİ Tür: Dram, Gerilim, Gizem Bill Harford ve karısı Alice Harford'ın dış dünyaya mutlu bir yansıyan bir evlilikleri vardır. İlişkilerinde her şey yolunda gibi görünmektedir. Bir gün katıldıkları bir davette Alice, başka erkeklerle sohbetlere dalar. Bunu fark eden Bill, hem sinirlenir hem de yaşanan bu duruma tuhaf bir tepki gösterir. Bill, yaşanan o geceden sonra kimliğini cinselliğe emanet edecektir. Oldukça tuhaf düşüncelerle örülü bir cinsellik dünyasına doğru savrulacaktır. Oyuncular: Tom Cruise, Nicole Kidman, Sydney Pollack, Julienne Davis, Todd Field, Rade Serbedzija, Marie Richardson, Vinessa Shaw, Alan Cumming, Sky du Mont FİLM TANITIM LİNKİ FİLMDEN KARELER General Format : Matroska File size : 5.65 GiB Duration : 2 h 39 min Overall bit rate : 5 081 kb/s Frame rate : 23.976 FPS Video Format : AVC Format/Info : Advanced Video Codec Duration : 2 h 39 min Width : 1 920 pixels Height : 1 080 pixels Frame rate : 23.976 (24000/1001) FPS Stream size : 4.93 GiB (87%) Audio Format : AC-3 Format/Info : Audio Coding 3 Duration : 2 h 39 min Channel(s) : 6 channels Frame rate : 31.250 FPS (1536 SPF) Stream size : 729 MiB (13%) Language : English Altyazı #1 Format : UTF-8 Duration : 2 h 32 min Frame rate : 0.167 FPS Stream size : 42.9 KiB (0%) Language : English (US) Altyazı #2 Format : UTF-8 Duration : 2 h 33 min Frame rate : 0.185 FPS Stream size : 47.4 KiB (0%) Language : English (US) Altyazı #3 Format : UTF-8 Duration : 2 h 33 min Frame rate : 0.153 FPS Stream size : 34.0 KiB (0%) Language : Mandarin (Hans) Altyazı #4 Format : UTF-8 Duration : 2 h 33 min Frame rate : 0.153 FPS Stream size : 34.0 KiB (0%) Language : Mandarin (Hant) Altyazı #5 Format : UTF-8 Duration : 2 h 32 min Frame rate : 0.140 FPS Stream size : 40.9 KiB (0%) Language : Danish Altyazı #6 Format : UTF-8 Duration : 2 h 32 min Frame rate : 0.144 FPS Stream size : 43.1 KiB (0%) Language : German Altyazı #7 Format : UTF-8 Duration : 2 h 32 min Frame rate : 0.127 FPS Stream size : 56.3 KiB (0%) Language : Greek Altyazı #8 Format : UTF-8 Duration : 2 h 37 min Frame rate : 0.137 FPS Stream size : 39.5 KiB (0%) Language : Spanish (Latin America) Altyazı #9 Format : UTF-8 Duration : 2 h 32 min Frame rate : 0.144 FPS Stream size : 37.6 KiB (0%) Language : Spanish (ES) Altyazı #10 Format : UTF-8 Duration : 2 h 32 min Frame rate : 0.111 FPS Stream size : 34.4 KiB (0%) Language : Finnish Altyazı #11 Format : UTF-8 Duration : 2 h 37 min Frame rate : 0.148 FPS Stream size : 36.9 KiB (0%) Language : French Altyazı #12 Format : UTF-8 Duration : 2 h 32 min Frame rate : 0.151 FPS Stream size : 37.4 KiB (0%) Language : Indonesian Altyazı #13 Format : UTF-8 Duration : 2 h 32 min Frame rate : 0.143 FPS Stream size : 37.9 KiB (0%) Language : Italian Altyazı #14 Format : UTF-8 Duration : 2 h 32 min Frame rate : 0.151 FPS Stream size : 37.6 KiB (0%) Language : Korean Altyazı #15 Format : UTF-8 Duration : 2 h 32 min Frame rate : 0.151 FPS Stream size : 36.6 KiB (0%) Language : Malay Altyazı #16 Format : UTF-8 Duration : 2 h 32 min Frame rate : 0.134 FPS Stream size : 40.3 KiB (0%) Language : Norwegian Bokmal Altyazı #17 Format : UTF-8 Duration : 2 h 32 min Frame rate : 0.107 FPS Stream size : 35.4 KiB (0%) Language : Dutch Altyazı #18 Format : UTF-8 Duration : 2 h 32 min Frame rate : 0.144 FPS Stream size : 33.8 KiB (0%) Language : Polish Altyazı #19 Format : UTF-8 Duration : 2 h 38 min Frame rate : 0.139 FPS Stream size : 39.6 KiB (0%) Language : Portuguese (BR) Altyazı #20 Format : UTF-8 Duration : 2 h 32 min Frame rate : 0.141 FPS Stream size : 38.5 KiB (0%) Language : Portuguese (PT) Altyazı #21 Format : UTF-8 Duration : 2 h 32 min Frame rate : 0.144 FPS Stream size : 64.5 KiB (0%) Language : Russian Altyazı #22 Format : UTF-8 Duration : 2 h 32 min Frame rate : 0.111 FPS Stream size : 34.0 KiB (0%) Language : Swedish Altyazı #23 Format : UTF-8 Duration : 2 h 32 min Frame rate : 0.151 FPS Stream size : 87.5 KiB (0%) Language : Thai Altyazı #24 Format : UTF-8 Duration : 2 h 32 min Frame rate : 0.151 FPS Stream size : 39.9 KiB (0%) Language : Türkçe Altyazı #25 Format : UTF-8 Duration : 2 h 32 min Frame rate : 0.153 FPS Stream size : 33.7 KiB (0%) Language : Cantonese (Hant) İNDİRME LİNKİ SuperUp turbobit.net, gofile.io, doodrive.com, megaup.net, send.cm, 1fichier.com, mixdrop.ag, pixeldrain.com, streamtape.com, rapidgator.net
    0 Cevap | 1 Görüntüleme
  • SuperUp nickli üyeye ait kullanıcı resmi (Avatar)
    1 saat önce
    Gözü Tamamen Kapalı - Eyes Wide Shut (1999) 1080p Türkçe Altyazılı WEB-DL H264 DD5.1 IMDB LİNKİ Tür: Dram, Gerilim, Gizem Bill Harford ve karısı Alice Harford'ın dış dünyaya mutlu bir yansıyan bir evlilikleri vardır. İlişkilerinde her şey yolunda gibi görünmektedir. Bir gün katıldıkları bir davette Alice, başka erkeklerle sohbetlere dalar. Bunu fark eden Bill, hem sinirlenir hem de yaşanan bu duruma tuhaf bir tepki gösterir. Bill, yaşanan o geceden sonra kimliğini cinselliğe emanet edecektir. Oldukça tuhaf düşüncelerle örülü bir cinsellik dünyasına doğru savrulacaktır. Oyuncular: Tom Cruise, Nicole Kidman, Sydney Pollack, Julienne Davis, Todd Field, Rade Serbedzija, Marie Richardson, Vinessa Shaw, Alan Cumming, Sky du Mont FİLM TANITIM LİNKİ FİLMDEN KARELER General Format : Matroska File size : 5.65 GiB Duration : 2 h 39 min Overall bit rate : 5 081 kb/s Frame rate : 23.976 FPS Video Format : AVC Format/Info : Advanced Video Codec Duration : 2 h 39 min Width : 1 920 pixels Height : 1 080 pixels Frame rate : 23.976 (24000/1001) FPS Stream size : 4.93 GiB (87%) Audio Format : AC-3 Format/Info : Audio Coding 3 Duration : 2 h 39 min Channel(s) : 6 channels Frame rate : 31.250 FPS (1536 SPF) Stream size : 729 MiB (13%) Language : English Altyazı #1 Format : UTF-8 Duration : 2 h 32 min Frame rate : 0.167 FPS Stream size : 42.9 KiB (0%) Language : English (US) Altyazı #2 Format : UTF-8 Duration : 2 h 33 min Frame rate : 0.185 FPS Stream size : 47.4 KiB (0%) Language : English (US) Altyazı #3 Format : UTF-8 Duration : 2 h 33 min Frame rate : 0.153 FPS Stream size : 34.0 KiB (0%) Language : Mandarin (Hans) Altyazı #4 Format : UTF-8 Duration : 2 h 33 min Frame rate : 0.153 FPS Stream size : 34.0 KiB (0%) Language : Mandarin (Hant) Altyazı #5 Format : UTF-8 Duration : 2 h 32 min Frame rate : 0.140 FPS Stream size : 40.9 KiB (0%) Language : Danish Altyazı #6 Format : UTF-8 Duration : 2 h 32 min Frame rate : 0.144 FPS Stream size : 43.1 KiB (0%) Language : German Altyazı #7 Format : UTF-8 Duration : 2 h 32 min Frame rate : 0.127 FPS Stream size : 56.3 KiB (0%) Language : Greek Altyazı #8 Format : UTF-8 Duration : 2 h 37 min Frame rate : 0.137 FPS Stream size : 39.5 KiB (0%) Language : Spanish (Latin America) Altyazı #9 Format : UTF-8 Duration : 2 h 32 min Frame rate : 0.144 FPS Stream size : 37.6 KiB (0%) Language : Spanish (ES) Altyazı #10 Format : UTF-8 Duration : 2 h 32 min Frame rate : 0.111 FPS Stream size : 34.4 KiB (0%) Language : Finnish Altyazı #11 Format : UTF-8 Duration : 2 h 37 min Frame rate : 0.148 FPS Stream size : 36.9 KiB (0%) Language : French Altyazı #12 Format : UTF-8 Duration : 2 h 32 min Frame rate : 0.151 FPS Stream size : 37.4 KiB (0%) Language : Indonesian Altyazı #13 Format : UTF-8 Duration : 2 h 32 min Frame rate : 0.143 FPS Stream size : 37.9 KiB (0%) Language : Italian Altyazı #14 Format : UTF-8 Duration : 2 h 32 min Frame rate : 0.151 FPS Stream size : 37.6 KiB (0%) Language : Korean Altyazı #15 Format : UTF-8 Duration : 2 h 32 min Frame rate : 0.151 FPS Stream size : 36.6 KiB (0%) Language : Malay Altyazı #16 Format : UTF-8 Duration : 2 h 32 min Frame rate : 0.134 FPS Stream size : 40.3 KiB (0%) Language : Norwegian Bokmal Altyazı #17 Format : UTF-8 Duration : 2 h 32 min Frame rate : 0.107 FPS Stream size : 35.4 KiB (0%) Language : Dutch Altyazı #18 Format : UTF-8 Duration : 2 h 32 min Frame rate : 0.144 FPS Stream size : 33.8 KiB (0%) Language : Polish Altyazı #19 Format : UTF-8 Duration : 2 h 38 min Frame rate : 0.139 FPS Stream size : 39.6 KiB (0%) Language : Portuguese (BR) Altyazı #20 Format : UTF-8 Duration : 2 h 32 min Frame rate : 0.141 FPS Stream size : 38.5 KiB (0%) Language : Portuguese (PT) Altyazı #21 Format : UTF-8 Duration : 2 h 32 min Frame rate : 0.144 FPS Stream size : 64.5 KiB (0%) Language : Russian Altyazı #22 Format : UTF-8 Duration : 2 h 32 min Frame rate : 0.111 FPS Stream size : 34.0 KiB (0%) Language : Swedish Altyazı #23 Format : UTF-8 Duration : 2 h 32 min Frame rate : 0.151 FPS Stream size : 87.5 KiB (0%) Language : Thai Altyazı #24 Format : UTF-8 Duration : 2 h 32 min Frame rate : 0.151 FPS Stream size : 39.9 KiB (0%) Language : Türkçe Altyazı #25 Format : UTF-8 Duration : 2 h 32 min Frame rate : 0.153 FPS Stream size : 33.7 KiB (0%) Language : Cantonese (Hant) İNDİRME LİNKİ SuperUp turbobit.net, gofile.io, doodrive.com, megaup.net, send.cm, 1fichier.com, mixdrop.ag, pixeldrain.com, streamtape.com, rapidgator.net
    0 Cevap | 5 Görüntüleme
  • SuperUp nickli üyeye ait kullanıcı resmi (Avatar)
    1 saat önce
    Sefiller - Les Miserables (2012) 1080p DUAL AMZN WEB-DL x264 - HdT IMDB LİNKİ Tür: Tarih, Dram Jean Valjean olarak bilinen 24601 nolu mahkum, hapishaneden salınır. Kendisine yeni bir hayat kurmak ister ama müfettiş Javert'in gölgesi onu daima takip etmektedir. Jean Valjean Fantine'in kızı Cosette ile ilgilenmeyi kabul ettikten sonra ikisinin hayatı da tamamen değişecektir. Fransız Devrimi'nin arifesinde geçen hikaye ihtilalin her iki tarafının da yüzünü gözler önüne serer. Oyuncular: Hugh Jackman, Russell Crowe, Anne Hathaway, Amanda Seyfried, Sacha Baron Cohen, Helena Bonham Carter, Eddie Redmayne, Aaron Tveit, Samantha Barks, Daniel Huttlestone FİLM TANITIM LİNKİ FİLMDEN KARELER General Format : Matroska File size : 11.2 GiB Duration : 2 h 38 min Overall bit rate : 10.1 Mb/s Frame rate : 23.976 FPS Video Format : AVC Format/Info : Advanced Video Codec Duration : 2 h 38 min Width : 1 920 pixels Height : 1 040 pixels Frame rate : 23.976 (24000/1001) FPS Stream size : 9.82 GiB (87%) Language : English Ses 1 Format : E-AC-3 Duration : 2 h 38 min Channel(s) : 6 channels Frame rate : 31.250 FPS (1536 SPF) Stream size : 727 MiB (6%) Language : Türkçe Ses 2 Format : E-AC-3 Duration : 2 h 38 min Channel(s) : 6 channels Frame rate : 31.250 FPS (1536 SPF) Stream size : 727 MiB (6%) Language : English Altyazı #1 Format : UTF-8 Duration : 2 h 31 min Frame rate : 0.203 FPS Stream size : 57.9 KiB (0%) Language : Türkçe Altyazı #2 Format : UTF-8 Duration : 2 h 31 min Frame rate : 0.171 FPS Stream size : 50.5 KiB (0%) Language : Türkçe Altyazı #3 Format : UTF-8 Duration : 2 h 29 min Frame rate : 0.230 FPS Stream size : 59.7 KiB (0%) Language : English Altyazı #4 Format : UTF-8 Duration : 2 h 28 min Frame rate : 0.181 FPS Stream size : 50.8 KiB (0%) Language : English Altyazı #5 Format : UTF-8 Duration : 2 h 29 min Frame rate : 0.229 FPS Stream size : 59.5 KiB (0%) Language : English Altyazı #6 Format : UTF-8 Duration : 1 h 59 min Frame rate : 0.001 FPS Stream size : 464 Bytes (0%) İNDİRME LİNKİ SuperUp turbobit.net, gofile.io, doodrive.com, megaup.net, send.cm, 1fichier.com, mixdrop.ag, pixeldrain.com, streamtape.com, rapidgator.net
    0 Cevap | 2 Görüntüleme
  • SuperUp nickli üyeye ait kullanıcı resmi (Avatar)
    1 saat önce
    Sefiller - Les Miserables (2012) 1080p DUAL AMZN WEB-DL x264 - HdT IMDB LİNKİ Tür: Tarih, Dram Jean Valjean olarak bilinen 24601 nolu mahkum, hapishaneden salınır. Kendisine yeni bir hayat kurmak ister ama müfettiş Javert'in gölgesi onu daima takip etmektedir. Jean Valjean Fantine'in kızı Cosette ile ilgilenmeyi kabul ettikten sonra ikisinin hayatı da tamamen değişecektir. Fransız Devrimi'nin arifesinde geçen hikaye ihtilalin her iki tarafının da yüzünü gözler önüne serer. Oyuncular: Hugh Jackman, Russell Crowe, Anne Hathaway, Amanda Seyfried, Sacha Baron Cohen, Helena Bonham Carter, Eddie Redmayne, Aaron Tveit, Samantha Barks, Daniel Huttlestone FİLM TANITIM LİNKİ FİLMDEN KARELER General Format : Matroska File size : 11.2 GiB Duration : 2 h 38 min Overall bit rate : 10.1 Mb/s Frame rate : 23.976 FPS Video Format : AVC Format/Info : Advanced Video Codec Duration : 2 h 38 min Width : 1 920 pixels Height : 1 040 pixels Frame rate : 23.976 (24000/1001) FPS Stream size : 9.82 GiB (87%) Language : English Ses 1 Format : E-AC-3 Duration : 2 h 38 min Channel(s) : 6 channels Frame rate : 31.250 FPS (1536 SPF) Stream size : 727 MiB (6%) Language : Türkçe Ses 2 Format : E-AC-3 Duration : 2 h 38 min Channel(s) : 6 channels Frame rate : 31.250 FPS (1536 SPF) Stream size : 727 MiB (6%) Language : English Altyazı #1 Format : UTF-8 Duration : 2 h 31 min Frame rate : 0.203 FPS Stream size : 57.9 KiB (0%) Language : Türkçe Altyazı #2 Format : UTF-8 Duration : 2 h 31 min Frame rate : 0.171 FPS Stream size : 50.5 KiB (0%) Language : Türkçe Altyazı #3 Format : UTF-8 Duration : 2 h 29 min Frame rate : 0.230 FPS Stream size : 59.7 KiB (0%) Language : English Altyazı #4 Format : UTF-8 Duration : 2 h 28 min Frame rate : 0.181 FPS Stream size : 50.8 KiB (0%) Language : English Altyazı #5 Format : UTF-8 Duration : 2 h 29 min Frame rate : 0.229 FPS Stream size : 59.5 KiB (0%) Language : English Altyazı #6 Format : UTF-8 Duration : 1 h 59 min Frame rate : 0.001 FPS Stream size : 464 Bytes (0%) İNDİRME LİNKİ SuperUp turbobit.net, gofile.io, doodrive.com, megaup.net, send.cm, 1fichier.com, mixdrop.ag, pixeldrain.com, streamtape.com, rapidgator.net
    0 Cevap | 19 Görüntüleme
  • SuperUp nickli üyeye ait kullanıcı resmi (Avatar)
    3 Saat önce
    Robin Hood (2010) 1080p DUAL AMZN WEB-DL x264 - HdT IMDB LİNKİ Tür: Aksiyon, Macera, Dram 13. yüzyıl İngiltere'sinde Robin Hood ve arkadaşları, yaşadıkları köydeki yozlaşmanın karşısına dikilmiş, krala karşı isyana kalkışarak güçler dengesini sonsuza kadar değiştirmişlerdi. Kimilerince hırsız, kimilerince kahraman olarak nitelenen bu mütevazi adam, kendi halkının özgürlük sembolü olur. Oyuncular: Russell Crowe, Cate Blanchett, Max von Sydow, William Hurt, Mark Strong, Oscar Isaac, Danny Huston, Eileen Atkins, Mark Addy, Matthew Macfadyen FİLM TANITIM LİNKİ FİLMDEN KARELER General Format : Matroska File size : 11.1 GiB Duration : 2 h 20 min Overall bit rate : 11.3 Mb/s Frame rate : 23.976 FPS Video Format : AVC Format/Info : Advanced Video Codec Duration : 2 h 20 min Width : 1 920 pixels Height : 800 pixels Frame rate : 23.976 (24000/1001) FPS Stream size : 9.84 GiB (89%) Language : English Ses 1 Format : E-AC-3 Duration : 2 h 20 min Channel(s) : 6 channels Frame rate : 31.250 FPS (1536 SPF) Stream size : 644 MiB (6%) Language : Türkçe Ses 2 Format : E-AC-3 Duration : 2 h 20 min Channel(s) : 6 channels Frame rate : 31.250 FPS (1536 SPF) Stream size : 644 MiB (6%) Language : English Altyazı #1 Format : UTF-8 Duration : 2 h 13 min Frame rate : 0.163 FPS Stream size : 39.2 KiB (0%) Language : Türkçe Altyazı #2 Format : UTF-8 Duration : 1 h 56 min Frame rate : 0.009 FPS Stream size : 1 009 Bytes (0%) Language : Türkçe Altyazı #3 Format : UTF-8 Duration : 2 h 12 min Frame rate : 0.175 FPS Stream size : 41.8 KiB (0%) Language : English Altyazı #4 Format : UTF-8 Duration : 1 h 56 min Frame rate : 0.009 FPS Stream size : 989 Bytes (0%) Language : English Altyazı #5 Format : UTF-8 Duration : 1 h 59 min Frame rate : 0.001 FPS Stream size : 464 Bytes (0%) İNDİRME LİNKİ SuperUp turbobit.net, gofile.io, doodrive.com, megaup.net, send.cm, 1fichier.com, mixdrop.ag, pixeldrain.com, streamtape.com, rapidgator.net
    0 Cevap | 2 Görüntüleme
  • SuperUp nickli üyeye ait kullanıcı resmi (Avatar)
    3 Saat önce
    Robin Hood (2010) 1080p DUAL AMZN WEB-DL x264 - HdT IMDB LİNKİ Tür: Aksiyon, Macera, Dram 13. yüzyıl İngiltere'sinde Robin Hood ve arkadaşları, yaşadıkları köydeki yozlaşmanın karşısına dikilmiş, krala karşı isyana kalkışarak güçler dengesini sonsuza kadar değiştirmişlerdi. Kimilerince hırsız, kimilerince kahraman olarak nitelenen bu mütevazi adam, kendi halkının özgürlük sembolü olur. Oyuncular: Russell Crowe, Cate Blanchett, Max von Sydow, William Hurt, Mark Strong, Oscar Isaac, Danny Huston, Eileen Atkins, Mark Addy, Matthew Macfadyen FİLM TANITIM LİNKİ FİLMDEN KARELER General Format : Matroska File size : 11.1 GiB Duration : 2 h 20 min Overall bit rate : 11.3 Mb/s Frame rate : 23.976 FPS Video Format : AVC Format/Info : Advanced Video Codec Duration : 2 h 20 min Width : 1 920 pixels Height : 800 pixels Frame rate : 23.976 (24000/1001) FPS Stream size : 9.84 GiB (89%) Language : English Ses 1 Format : E-AC-3 Duration : 2 h 20 min Channel(s) : 6 channels Frame rate : 31.250 FPS (1536 SPF) Stream size : 644 MiB (6%) Language : Türkçe Ses 2 Format : E-AC-3 Duration : 2 h 20 min Channel(s) : 6 channels Frame rate : 31.250 FPS (1536 SPF) Stream size : 644 MiB (6%) Language : English Altyazı #1 Format : UTF-8 Duration : 2 h 13 min Frame rate : 0.163 FPS Stream size : 39.2 KiB (0%) Language : Türkçe Altyazı #2 Format : UTF-8 Duration : 1 h 56 min Frame rate : 0.009 FPS Stream size : 1 009 Bytes (0%) Language : Türkçe Altyazı #3 Format : UTF-8 Duration : 2 h 12 min Frame rate : 0.175 FPS Stream size : 41.8 KiB (0%) Language : English Altyazı #4 Format : UTF-8 Duration : 1 h 56 min Frame rate : 0.009 FPS Stream size : 989 Bytes (0%) Language : English Altyazı #5 Format : UTF-8 Duration : 1 h 59 min Frame rate : 0.001 FPS Stream size : 464 Bytes (0%) İNDİRME LİNKİ SuperUp turbobit.net, gofile.io, doodrive.com, megaup.net, send.cm, 1fichier.com, mixdrop.ag, pixeldrain.com, streamtape.com, rapidgator.net
    0 Cevap | 4 Görüntüleme
  • SuperUp nickli üyeye ait kullanıcı resmi (Avatar)
    3 Saat önce
    Var Bunlar S01 1080p WEB-DL H264 IMDB LİNKİ Tür: Komedi Gündelik hayatın içinden çıkılmaz tekdüzeliğine sürüklenen iki yakın arkadaşın eğlenceli maceraları. General Format : Matroska File size : 486 MiB Duration : 20 min 11 s Overall bit rate : 3 366 kb/s Frame rate : 25.000 FPS Video Format : AVC Format/Info : Advanced Video Codec Duration : 20 min 11 s Width : 1 920 pixels Height : 1 080 pixels Frame rate : 25.000 FPS Stream size : 472 MiB (97%) Language : Türkçe Audio Format : AAC LC Format/Info : Advanced Audio Codec Low Complexity Duration : 20 min 11 s Channel(s) : 2 channels Frame rate : 43.066 FPS (1024 SPF) Stream size : 13.9 MiB (3%) Language : Türkçe BÖLÜM 001 BÖLÜM 002 BÖLÜM 003 BÖLÜM 004 BÖLÜM 005 BÖLÜM 006 BÖLÜM 007 BÖLÜM 008 BÖLÜM 009 BÖLÜM 010 BÖLÜM 011 BÖLÜM 012 BÖLÜM 013
    0 Cevap | 4 Görüntüleme
  • SuperUp nickli üyeye ait kullanıcı resmi (Avatar)
    3 Saat önce
    Var Bunlar S02 1080p x264 IMDB LİNKİ Tür: Komedi Gündelik hayatın içinden çıkılmaz tekdüzeliğine sürüklenen iki yakın arkadaşın eğlenceli maceraları. General Format : Matroska File size : 551 MiB Duration : 25 min 25 s Overall bit rate : 3 027 kb/s Frame rate : 25.000 FPS Video Format : AVC Format/Info : Advanced Video Codec Duration : 25 min 25 s Width : 1 920 pixels Height : 1 080 pixels Frame rate : 25.000 FPS Stream size : 533 MiB (97%) Audio Format : AAC LC Format/Info : Advanced Audio Codec Low Complexity Duration : 25 min 25 s Channel(s) : 2 channels Frame rate : 43.066 FPS (1024 SPF) Stream size : 17.5 MiB (3%) Language : Türkçe BÖLÜM 001 BÖLÜM 002 BÖLÜM 003 BÖLÜM 004 BÖLÜM 005 BÖLÜM 006 BÖLÜM 007 BÖLÜM 008 BÖLÜM 009 BÖLÜM 010 BÖLÜM 011 BÖLÜM 012 BÖLÜM 013
    0 Cevap | 3 Görüntüleme
  • SuperUp nickli üyeye ait kullanıcı resmi (Avatar)
    3 Saat önce
    SuperUp Yeni bir konu başlattı Var Bunlar S02 1080p x264 Kategorisi BoxSet Yerli Diziler
    Var Bunlar S02 1080p x264 IMDB LİNKİ Tür: Komedi Gündelik hayatın içinden çıkılmaz tekdüzeliğine sürüklenen iki yakın arkadaşın eğlenceli maceraları. General Format : Matroska File size : 551 MiB Duration : 25 min 25 s Overall bit rate : 3 027 kb/s Frame rate : 25.000 FPS Video Format : AVC Format/Info : Advanced Video Codec Duration : 25 min 25 s Width : 1 920 pixels Height : 1 080 pixels Frame rate : 25.000 FPS Stream size : 533 MiB (97%) Audio Format : AAC LC Format/Info : Advanced Audio Codec Low Complexity Duration : 25 min 25 s Channel(s) : 2 channels Frame rate : 43.066 FPS (1024 SPF) Stream size : 17.5 MiB (3%) Language : Türkçe BÖLÜM 001 BÖLÜM 002 BÖLÜM 003 BÖLÜM 004 BÖLÜM 005 BÖLÜM 006 BÖLÜM 007 BÖLÜM 008 BÖLÜM 009 BÖLÜM 010 BÖLÜM 011 BÖLÜM 012 BÖLÜM 013
    0 Cevap | 13 Görüntüleme
  • SuperUp nickli üyeye ait kullanıcı resmi (Avatar)
    3 Saat önce
    SuperUp Yeni bir konu başlattı Var Bunlar S01 1080p WEB-DL H264 Kategorisi BoxSet Yerli Diziler
    Var Bunlar S01 1080p WEB-DL H264 IMDB LİNKİ Tür: Komedi Gündelik hayatın içinden çıkılmaz tekdüzeliğine sürüklenen iki yakın arkadaşın eğlenceli maceraları. General Format : Matroska File size : 486 MiB Duration : 20 min 11 s Overall bit rate : 3 366 kb/s Frame rate : 25.000 FPS Video Format : AVC Format/Info : Advanced Video Codec Duration : 20 min 11 s Width : 1 920 pixels Height : 1 080 pixels Frame rate : 25.000 FPS Stream size : 472 MiB (97%) Language : Türkçe Audio Format : AAC LC Format/Info : Advanced Audio Codec Low Complexity Duration : 20 min 11 s Channel(s) : 2 channels Frame rate : 43.066 FPS (1024 SPF) Stream size : 13.9 MiB (3%) Language : Türkçe BÖLÜM 001 BÖLÜM 002 BÖLÜM 003 BÖLÜM 004 BÖLÜM 005 BÖLÜM 006 BÖLÜM 007 BÖLÜM 008 BÖLÜM 009 BÖLÜM 010 BÖLÜM 011 BÖLÜM 012 BÖLÜM 013
    0 Cevap | 6 Görüntüleme
  • SuperUp nickli üyeye ait kullanıcı resmi (Avatar)
    3 Saat önce
    Son Krallık - The Last Kingdom S01 1080p DUAL BluRay x264 IMDB LİNKİ Tür: Dram, Dizi, Vikingler tarafından büyütülen, sonrasında kralları Büyük Alfred ile oğlu Edward için kalkan duvarları ve kan, intikam içerisinde Alfred'in İngiltere diye adlandırdığı krallıkları tek bir bayrak altında toplama rüyasını gerçekleştirmek için hizmet eden bir savaşçının hikayesi anlatılıyor. FİLMDEN KARELER General Format : Matroska File size : 2.35 GiB Duration : 59 min 16 s Overall bit rate : 5 685 kb/s Frame rate : 25.114 FPS Video Format : AVC Format/Info : Advanced Video Codec Duration : 58 min 59 s Width : 1 920 pixels Height : 1 080 pixels Frame rate : 25.114 FPS Stream size : 2.19 GiB (93%) Ses 1 Format : AAC LC SBR Format/Info : Advanced Audio Codec Low Complexity with Spectral Band Replication Duration : 59 min 16 s Channel(s) : 6 channels Frame rate : 23.438 FPS (2048 SPF) Stream size : 81.4 MiB (3%) Language : English Ses 2 Format : AAC LC SBR Format/Info : Advanced Audio Codec Low Complexity with Spectral Band Replication Duration : 59 min 16 s Channel(s) : 6 channels Frame rate : 23.438 FPS (2048 SPF) Stream size : 81.4 MiB (3%) Language : Türkçe Altyazı #1 Format : ASS Duration : 58 min 59 s Frame rate : 0.176 FPS Stream size : 32.6 KiB (0%) Language : Türkçe Altyazı #2 Format : ASS Duration : 58 min 18 s Frame rate : 0.209 FPS Stream size : 38.1 KiB (0%) Language : English Altyazı #3 Format : ASS Duration : 26 min 35 s Frame rate : 0.003 FPS Stream size : 200 Bytes (0%) Language : Türkçe BÖLÜM 001 BÖLÜM 002 BÖLÜM 003 BÖLÜM 004 BÖLÜM 005 BÖLÜM 006 BÖLÜM 007 BÖLÜM 008
    0 Cevap | 2 Görüntüleme
  • SuperUp nickli üyeye ait kullanıcı resmi (Avatar)
    3 Saat önce
    Son Krallık - The Last Kingdom S02 1080p DUAL BluRay x264 IMDB LİNKİ Tür: Dram, Dizi, Vikingler tarafından büyütülen, sonrasında kralları Büyük Alfred ile oğlu Edward için kalkan duvarları ve kan, intikam içerisinde Alfred'in İngiltere diye adlandırdığı krallıkları tek bir bayrak altında toplama rüyasını gerçekleştirmek için hizmet eden bir savaşçının hikayesi anlatılıyor. FİLMDEN KARELER General Format : Matroska File size : 1.69 GiB Duration : 57 min 26 s Overall bit rate : 4 219 kb/s Frame rate : 25.000 FPS Video Format : AVC Format/Info : Advanced Video Codec Duration : 57 min 26 s Width : 1 920 pixels Height : 1 080 pixels Frame rate : 25.000 FPS Stream size : 1.54 GiB (91%) Ses 1 Format : AAC LC SBR Format/Info : Advanced Audio Codec Low Complexity with Spectral Band Replication Duration : 57 min 26 s Channel(s) : 6 channels Frame rate : 23.438 FPS (2048 SPF) Stream size : 78.9 MiB (5%) Language : English Ses 2 Format : AAC LC SBR Format/Info : Advanced Audio Codec Low Complexity with Spectral Band Replication Duration : 57 min 26 s Channel(s) : 6 channels Frame rate : 23.438 FPS (2048 SPF) Stream size : 78.9 MiB (5%) Language : Türkçe Altyazı #1 Format : ASS Duration : 56 min 52 s Frame rate : 0.171 FPS Stream size : 37.8 KiB (0%) Language : Türkçe Altyazı #2 Format : ASS Duration : 56 min 23 s Frame rate : 0.254 FPS Stream size : 44.1 KiB (0%) Language : English Altyazı #3 Format : ASS Duration : 53 min 22 s Frame rate : 0.004 FPS Stream size : 503 Bytes (0%) Language : Türkçe BÖLÜM 001 BÖLÜM 002 BÖLÜM 003 BÖLÜM 004 BÖLÜM 005 BÖLÜM 006 BÖLÜM 007 BÖLÜM 008
    0 Cevap | 1 Görüntüleme
  • SuperUp nickli üyeye ait kullanıcı resmi (Avatar)
    3 Saat önce
    Son Krallık - The Last Kingdom S03 1080p DUAL BluRay x264 IMDB LİNKİ Tür: Dram, Dizi, Vikingler tarafından büyütülen, sonrasında kralları Büyük Alfred ile oğlu Edward için kalkan duvarları ve kan, intikam içerisinde Alfred'in İngiltere diye adlandırdığı krallıkları tek bir bayrak altında toplama rüyasını gerçekleştirmek için hizmet eden bir savaşçının hikayesi anlatılıyor. FİLMDEN KARELER General Format : Matroska File size : 1.69 GiB Duration : 54 min 58 s Overall bit rate : 4 396 kb/s Frame rate : 25.000 FPS Video Format : AVC Format/Info : Advanced Video Codec Duration : 54 min 57 s Width : 1 920 pixels Height : 1 080 pixels Frame rate : 25.000 FPS Stream size : 1.54 GiB (91%) Ses 1 Format : AAC LC SBR Format/Info : Advanced Audio Codec Low Complexity with Spectral Band Replication Duration : 54 min 58 s Channel(s) : 6 channels Frame rate : 23.438 FPS (2048 SPF) Stream size : 75.5 MiB (4%) Language : English Ses 2 Format : AAC LC SBR Format/Info : Advanced Audio Codec Low Complexity with Spectral Band Replication Duration : 54 min 58 s Channel(s) : 6 channels Frame rate : 23.438 FPS (2048 SPF) Stream size : 75.5 MiB (4%) Language : Türkçe Altyazı #1 Format : ASS Duration : 53 min 55 s Frame rate : 0.183 FPS Stream size : 31.8 KiB (0%) Language : Türkçe Altyazı #2 Format : ASS Duration : 53 min 9 s Frame rate : 0.234 FPS Stream size : 38.8 KiB (0%) Language : English Altyazı #3 Format : ASS Duration : 53 min 55 s Frame rate : 0.002 FPS Stream size : 314 Bytes (0%) Language : Türkçe BÖLÜM 001 BÖLÜM 002 BÖLÜM 003 BÖLÜM 004 BÖLÜM 005 BÖLÜM 006 BÖLÜM 007 BÖLÜM 008 BÖLÜM 009 BÖLÜM 010
    0 Cevap | 1 Görüntüleme
  • SuperUp nickli üyeye ait kullanıcı resmi (Avatar)
    3 Saat önce
    Son Krallık - The Last Kingdom S04 1080p DUAL BluRay x264 IMDB LİNKİ Tür: Dram, Dizi, Vikingler tarafından büyütülen, sonrasında kralları Büyük Alfred ile oğlu Edward için kalkan duvarları ve kan, intikam içerisinde Alfred'in İngiltere diye adlandırdığı krallıkları tek bir bayrak altında toplama rüyasını gerçekleştirmek için hizmet eden bir savaşçının hikayesi anlatılıyor. FİLMDEN KARELER General Format : Matroska File size : 1.63 GiB Duration : 56 min 4 s Overall bit rate : 4 162 kb/s Frame rate : 25.000 FPS Video Format : AVC Format/Info : Advanced Video Codec Duration : 56 min 4 s Width : 1 920 pixels Height : 1 080 pixels Frame rate : 25.000 FPS Stream size : 1.48 GiB (91%) Ses 1 Format : AAC LC SBR Format/Info : Advanced Audio Codec Low Complexity with Spectral Band Replication Duration : 56 min 4 s Channel(s) : 6 channels Frame rate : 23.438 FPS (2048 SPF) Stream size : 77.0 MiB (5%) Language : English Ses 2 Format : AAC LC SBR Format/Info : Advanced Audio Codec Low Complexity with Spectral Band Replication Duration : 56 min 4 s Channel(s) : 6 channels Frame rate : 23.438 FPS (2048 SPF) Stream size : 77.0 MiB (5%) Language : Türkçe Altyazı #1 Format : ASS Duration : 55 min 1 s Frame rate : 0.190 FPS Stream size : 36.2 KiB (0%) Language : Türkçe Altyazı #2 Format : ASS Duration : 54 min 33 s Frame rate : 0.215 FPS Stream size : 41.6 KiB (0%) Language : English Altyazı #3 Format : ASS Duration : 55 min 1 s Frame rate : 0.003 FPS Stream size : 519 Bytes (0%) Language : Türkçe BÖLÜM 001 BÖLÜM 002 BÖLÜM 003 BÖLÜM 004 BÖLÜM 005 BÖLÜM 006 BÖLÜM 007 BÖLÜM 008 BÖLÜM 009 BÖLÜM 010
    0 Cevap | 2 Görüntüleme
  • SuperUp nickli üyeye ait kullanıcı resmi (Avatar)
    3 Saat önce
    Son Krallık - The Last Kingdom S05 1080p DUAL BluRay x264 IMDB LİNKİ Tür: Dram, Dizi, Vikingler tarafından büyütülen, sonrasında kralları Büyük Alfred ile oğlu Edward için kalkan duvarları ve kan, intikam içerisinde Alfred'in İngiltere diye adlandırdığı krallıkları tek bir bayrak altında toplama rüyasını gerçekleştirmek için hizmet eden bir savaşçının hikayesi anlatılıyor. FİLMDEN KARELER General Format : Matroska File size : 1.82 GiB Duration : 54 min 24 s Overall bit rate : 4 786 kb/s Frame rate : 25.000 FPS Video Format : AVC Format/Info : Advanced Video Codec Duration : 54 min 23 s Width : 1 920 pixels Height : 1 080 pixels Frame rate : 25.000 FPS Stream size : 1.67 GiB (92%) Ses 1 Format : AAC LC SBR Format/Info : Advanced Audio Codec Low Complexity with Spectral Band Replication Duration : 54 min 24 s Channel(s) : 6 channels Frame rate : 23.438 FPS (2048 SPF) Stream size : 74.7 MiB (4%) Language : English Ses 2 Format : AAC LC SBR Format/Info : Advanced Audio Codec Low Complexity with Spectral Band Replication Duration : 54 min 24 s Channel(s) : 6 channels Frame rate : 23.438 FPS (2048 SPF) Stream size : 74.7 MiB (4%) Language : Türkçe Altyazı #1 Format : ASS Duration : 52 min 35 s Frame rate : 0.180 FPS Stream size : 32.9 KiB (0%) Language : Türkçe Altyazı #2 Format : ASS Duration : 52 min 23 s Frame rate : 0.224 FPS Stream size : 39.5 KiB (0%) Language : English Altyazı #3 Format : ASS Duration : 52 min 35 s Frame rate : 0.005 FPS Stream size : 811 Bytes (0%) Language : Türkçe BÖLÜM 001 BÖLÜM 002 BÖLÜM 003 BÖLÜM 004 BÖLÜM 005 BÖLÜM 006 BÖLÜM 007 BÖLÜM 008 BÖLÜM 009 BÖLÜM 010
    0 Cevap | 2 Görüntüleme
  • SuperUp nickli üyeye ait kullanıcı resmi (Avatar)
    3 Saat önce
    Son Krallık - The Last Kingdom S05 1080p DUAL BluRay x264 IMDB LİNKİ Tür: Dram, Dizi, Vikingler tarafından büyütülen, sonrasında kralları Büyük Alfred ile oğlu Edward için kalkan duvarları ve kan, intikam içerisinde Alfred'in İngiltere diye adlandırdığı krallıkları tek bir bayrak altında toplama rüyasını gerçekleştirmek için hizmet eden bir savaşçının hikayesi anlatılıyor. FİLMDEN KARELER General Format : Matroska File size : 1.82 GiB Duration : 54 min 24 s Overall bit rate : 4 786 kb/s Frame rate : 25.000 FPS Video Format : AVC Format/Info : Advanced Video Codec Duration : 54 min 23 s Width : 1 920 pixels Height : 1 080 pixels Frame rate : 25.000 FPS Stream size : 1.67 GiB (92%) Ses 1 Format : AAC LC SBR Format/Info : Advanced Audio Codec Low Complexity with Spectral Band Replication Duration : 54 min 24 s Channel(s) : 6 channels Frame rate : 23.438 FPS (2048 SPF) Stream size : 74.7 MiB (4%) Language : English Ses 2 Format : AAC LC SBR Format/Info : Advanced Audio Codec Low Complexity with Spectral Band Replication Duration : 54 min 24 s Channel(s) : 6 channels Frame rate : 23.438 FPS (2048 SPF) Stream size : 74.7 MiB (4%) Language : Türkçe Altyazı #1 Format : ASS Duration : 52 min 35 s Frame rate : 0.180 FPS Stream size : 32.9 KiB (0%) Language : Türkçe Altyazı #2 Format : ASS Duration : 52 min 23 s Frame rate : 0.224 FPS Stream size : 39.5 KiB (0%) Language : English Altyazı #3 Format : ASS Duration : 52 min 35 s Frame rate : 0.005 FPS Stream size : 811 Bytes (0%) Language : Türkçe BÖLÜM 001 BÖLÜM 002 BÖLÜM 003 BÖLÜM 004 BÖLÜM 005 BÖLÜM 006 BÖLÜM 007 BÖLÜM 008 BÖLÜM 009 BÖLÜM 010
    1 Cevap | 11 Görüntüleme
  • SuperUp nickli üyeye ait kullanıcı resmi (Avatar)
    3 Saat önce
    Son Krallık - The Last Kingdom S04 1080p DUAL BluRay x264 IMDB LİNKİ Tür: Dram, Dizi, Vikingler tarafından büyütülen, sonrasında kralları Büyük Alfred ile oğlu Edward için kalkan duvarları ve kan, intikam içerisinde Alfred'in İngiltere diye adlandırdığı krallıkları tek bir bayrak altında toplama rüyasını gerçekleştirmek için hizmet eden bir savaşçının hikayesi anlatılıyor. FİLMDEN KARELER General Format : Matroska File size : 1.63 GiB Duration : 56 min 4 s Overall bit rate : 4 162 kb/s Frame rate : 25.000 FPS Video Format : AVC Format/Info : Advanced Video Codec Duration : 56 min 4 s Width : 1 920 pixels Height : 1 080 pixels Frame rate : 25.000 FPS Stream size : 1.48 GiB (91%) Ses 1 Format : AAC LC SBR Format/Info : Advanced Audio Codec Low Complexity with Spectral Band Replication Duration : 56 min 4 s Channel(s) : 6 channels Frame rate : 23.438 FPS (2048 SPF) Stream size : 77.0 MiB (5%) Language : English Ses 2 Format : AAC LC SBR Format/Info : Advanced Audio Codec Low Complexity with Spectral Band Replication Duration : 56 min 4 s Channel(s) : 6 channels Frame rate : 23.438 FPS (2048 SPF) Stream size : 77.0 MiB (5%) Language : Türkçe Altyazı #1 Format : ASS Duration : 55 min 1 s Frame rate : 0.190 FPS Stream size : 36.2 KiB (0%) Language : Türkçe Altyazı #2 Format : ASS Duration : 54 min 33 s Frame rate : 0.215 FPS Stream size : 41.6 KiB (0%) Language : English Altyazı #3 Format : ASS Duration : 55 min 1 s Frame rate : 0.003 FPS Stream size : 519 Bytes (0%) Language : Türkçe BÖLÜM 001 BÖLÜM 002 BÖLÜM 003 BÖLÜM 004 BÖLÜM 005 BÖLÜM 006 BÖLÜM 007 BÖLÜM 008 BÖLÜM 009 BÖLÜM 010
    1 Cevap | 6 Görüntüleme
  • SuperUp nickli üyeye ait kullanıcı resmi (Avatar)
    3 Saat önce
    Son Krallık - The Last Kingdom S03 1080p DUAL BluRay x264 IMDB LİNKİ Tür: Dram, Dizi, Vikingler tarafından büyütülen, sonrasında kralları Büyük Alfred ile oğlu Edward için kalkan duvarları ve kan, intikam içerisinde Alfred'in İngiltere diye adlandırdığı krallıkları tek bir bayrak altında toplama rüyasını gerçekleştirmek için hizmet eden bir savaşçının hikayesi anlatılıyor. FİLMDEN KARELER General Format : Matroska File size : 1.69 GiB Duration : 54 min 58 s Overall bit rate : 4 396 kb/s Frame rate : 25.000 FPS Video Format : AVC Format/Info : Advanced Video Codec Duration : 54 min 57 s Width : 1 920 pixels Height : 1 080 pixels Frame rate : 25.000 FPS Stream size : 1.54 GiB (91%) Ses 1 Format : AAC LC SBR Format/Info : Advanced Audio Codec Low Complexity with Spectral Band Replication Duration : 54 min 58 s Channel(s) : 6 channels Frame rate : 23.438 FPS (2048 SPF) Stream size : 75.5 MiB (4%) Language : English Ses 2 Format : AAC LC SBR Format/Info : Advanced Audio Codec Low Complexity with Spectral Band Replication Duration : 54 min 58 s Channel(s) : 6 channels Frame rate : 23.438 FPS (2048 SPF) Stream size : 75.5 MiB (4%) Language : Türkçe Altyazı #1 Format : ASS Duration : 53 min 55 s Frame rate : 0.183 FPS Stream size : 31.8 KiB (0%) Language : Türkçe Altyazı #2 Format : ASS Duration : 53 min 9 s Frame rate : 0.234 FPS Stream size : 38.8 KiB (0%) Language : English Altyazı #3 Format : ASS Duration : 53 min 55 s Frame rate : 0.002 FPS Stream size : 314 Bytes (0%) Language : Türkçe BÖLÜM 001 BÖLÜM 002 BÖLÜM 003 BÖLÜM 004 BÖLÜM 005 BÖLÜM 006 BÖLÜM 007 BÖLÜM 008 BÖLÜM 009 BÖLÜM 010
    1 Cevap | 6 Görüntüleme
  • SuperUp nickli üyeye ait kullanıcı resmi (Avatar)
    3 Saat önce
    Son Krallık - The Last Kingdom S02 1080p DUAL BluRay x264 IMDB LİNKİ Tür: Dram, Dizi, Vikingler tarafından büyütülen, sonrasında kralları Büyük Alfred ile oğlu Edward için kalkan duvarları ve kan, intikam içerisinde Alfred'in İngiltere diye adlandırdığı krallıkları tek bir bayrak altında toplama rüyasını gerçekleştirmek için hizmet eden bir savaşçının hikayesi anlatılıyor. FİLMDEN KARELER General Format : Matroska File size : 1.69 GiB Duration : 57 min 26 s Overall bit rate : 4 219 kb/s Frame rate : 25.000 FPS Video Format : AVC Format/Info : Advanced Video Codec Duration : 57 min 26 s Width : 1 920 pixels Height : 1 080 pixels Frame rate : 25.000 FPS Stream size : 1.54 GiB (91%) Ses 1 Format : AAC LC SBR Format/Info : Advanced Audio Codec Low Complexity with Spectral Band Replication Duration : 57 min 26 s Channel(s) : 6 channels Frame rate : 23.438 FPS (2048 SPF) Stream size : 78.9 MiB (5%) Language : English Ses 2 Format : AAC LC SBR Format/Info : Advanced Audio Codec Low Complexity with Spectral Band Replication Duration : 57 min 26 s Channel(s) : 6 channels Frame rate : 23.438 FPS (2048 SPF) Stream size : 78.9 MiB (5%) Language : Türkçe Altyazı #1 Format : ASS Duration : 56 min 52 s Frame rate : 0.171 FPS Stream size : 37.8 KiB (0%) Language : Türkçe Altyazı #2 Format : ASS Duration : 56 min 23 s Frame rate : 0.254 FPS Stream size : 44.1 KiB (0%) Language : English Altyazı #3 Format : ASS Duration : 53 min 22 s Frame rate : 0.004 FPS Stream size : 503 Bytes (0%) Language : Türkçe BÖLÜM 001 BÖLÜM 002 BÖLÜM 003 BÖLÜM 004 BÖLÜM 005 BÖLÜM 006 BÖLÜM 007 BÖLÜM 008
    1 Cevap | 10 Görüntüleme
  • SuperUp nickli üyeye ait kullanıcı resmi (Avatar)
    3 Saat önce
    Son Krallık - The Last Kingdom S01 1080p DUAL BluRay x264 IMDB LİNKİ Tür: Dram, Dizi, Vikingler tarafından büyütülen, sonrasında kralları Büyük Alfred ile oğlu Edward için kalkan duvarları ve kan, intikam içerisinde Alfred'in İngiltere diye adlandırdığı krallıkları tek bir bayrak altında toplama rüyasını gerçekleştirmek için hizmet eden bir savaşçının hikayesi anlatılıyor. FİLMDEN KARELER General Format : Matroska File size : 2.35 GiB Duration : 59 min 16 s Overall bit rate : 5 685 kb/s Frame rate : 25.114 FPS Video Format : AVC Format/Info : Advanced Video Codec Duration : 58 min 59 s Width : 1 920 pixels Height : 1 080 pixels Frame rate : 25.114 FPS Stream size : 2.19 GiB (93%) Ses 1 Format : AAC LC SBR Format/Info : Advanced Audio Codec Low Complexity with Spectral Band Replication Duration : 59 min 16 s Channel(s) : 6 channels Frame rate : 23.438 FPS (2048 SPF) Stream size : 81.4 MiB (3%) Language : English Ses 2 Format : AAC LC SBR Format/Info : Advanced Audio Codec Low Complexity with Spectral Band Replication Duration : 59 min 16 s Channel(s) : 6 channels Frame rate : 23.438 FPS (2048 SPF) Stream size : 81.4 MiB (3%) Language : Türkçe Altyazı #1 Format : ASS Duration : 58 min 59 s Frame rate : 0.176 FPS Stream size : 32.6 KiB (0%) Language : Türkçe Altyazı #2 Format : ASS Duration : 58 min 18 s Frame rate : 0.209 FPS Stream size : 38.1 KiB (0%) Language : English Altyazı #3 Format : ASS Duration : 26 min 35 s Frame rate : 0.003 FPS Stream size : 200 Bytes (0%) Language : Türkçe BÖLÜM 001 BÖLÜM 002 BÖLÜM 003 BÖLÜM 004 BÖLÜM 005 BÖLÜM 006 BÖLÜM 007 BÖLÜM 008
    1 Cevap | 8 Görüntüleme
  • SuperUp nickli üyeye ait kullanıcı resmi (Avatar)
    4 Saat önce
    SuperUp kullanıcısının cevapladığı konu VİP ÜYELER İÇİN İSTEK ALANI / REQUEST AREA FOR VIP MEMBERS Kategorisi Diğer
    yükleniyor. takipte kalın. //55 dk sonra edit 5 sezon eklendi. https://www.filmrip.net/showthread.php?t=730745 https://www.filmrip.net/showthread.php?t=730746 https://www.filmrip.net/showthread.php?t=730747 https://www.filmrip.net/showthread.php?t=730748 https://www.filmrip.net/showthread.php?t=730749
    52 Cevap | 1004 Görüntüleme
  • SuperUp nickli üyeye ait kullanıcı resmi (Avatar)
    4 Saat önce
    Hayalet Avcıları: Ürperti - Ghostbusters: Frozen Empire (2024) m1080p DUAL BluRay x264 IMDB LİNKİ Tür: Fantastik, Macera, Komedi Spengler ailesi, hayaletleri bir sonraki seviyeye taşımak için çok gizli bir araştırma laboratuvarı geliştiren asıl Hayalet Avcıları ile ekip oluşturmak için her şeyin başladığı yere, ikonik New York City itfaiyesine geri döner. Ancak eski bir eserin keşfi şeytani bir gücü serbest bıraktığında evlerini korumak ve dünyayı ikinci bir Buzul Çağı'ndan kurtarmak için yeni ve eski Hayalet Avcıları güçlerini birleştirmelidir. Oyuncular: Mckenna Grace, Paul Rudd, Carrie Coon, Finn Wolfhard, Dan Aykroyd, Kumail Nanjiani, Patton Oswalt, Logan Kim, Emily Alyn Lind FİLM TANITIM LİNKİ FİLMDEN KARELER General Format : Matroska File size : 2.67 GiB Duration : 1 h 55 min Overall bit rate : 3 325 kb/s Frame rate : 23.976 FPS Video Format : AVC Format/Info : Advanced Video Codec Duration : 1 h 55 min Width : 1 920 pixels Height : 804 pixels Frame rate : 23.976 (24000/1001) FPS Stream size : 1.81 GiB (68%) Ses 1 Format : AC-3 Format/Info : Audio Coding 3 Duration : 1 h 55 min Channel(s) : 6 channels Frame rate : 31.250 FPS (1536 SPF) Stream size : 527 MiB (19%) Language : Türkçe Ses 2 Format : AAC LC Format/Info : Advanced Audio Codec Low Complexity Duration : 1 h 55 min Channel(s) : 6 channels Frame rate : 46.875 FPS (1024 SPF) Stream size : 316 MiB (12%) Language : English Altyazı #1 Format : PGS Duration : 1 h 53 min Frame rate : 0.387 FPS Stream size : 24.1 MiB (1%) Language : Türkçe Altyazı #2 Format : PGS Duration : 1 h 47 min Frame rate : 0.402 FPS Stream size : 24.5 MiB (1%) Language : English Altyazı #3 Format : PGS Duration : 1 h 48 min Frame rate : 0.500 FPS Stream size : 29.6 MiB (1%) Language : English İNDİRME LİNKİ SuperUp turbobit.net, gofile.io, doodrive.com, megaup.net, send.cm, 1fichier.com, mixdrop.ag, pixeldrain.com, streamtape.com, rapidgator.net
    0 Cevap | 5 Görüntüleme
  • SuperUp nickli üyeye ait kullanıcı resmi (Avatar)
    4 Saat önce
    Hayalet Avcıları: Ürperti - Ghostbusters: Frozen Empire (2024) m1080p DUAL BluRay x264 IMDB LİNKİ Tür: Fantastik, Macera, Komedi Spengler ailesi, hayaletleri bir sonraki seviyeye taşımak için çok gizli bir araştırma laboratuvarı geliştiren asıl Hayalet Avcıları ile ekip oluşturmak için her şeyin başladığı yere, ikonik New York City itfaiyesine geri döner. Ancak eski bir eserin keşfi şeytani bir gücü serbest bıraktığında evlerini korumak ve dünyayı ikinci bir Buzul Çağı'ndan kurtarmak için yeni ve eski Hayalet Avcıları güçlerini birleştirmelidir. Oyuncular: Mckenna Grace, Paul Rudd, Carrie Coon, Finn Wolfhard, Dan Aykroyd, Kumail Nanjiani, Patton Oswalt, Logan Kim, Emily Alyn Lind FİLM TANITIM LİNKİ FİLMDEN KARELER General Format : Matroska File size : 2.67 GiB Duration : 1 h 55 min Overall bit rate : 3 325 kb/s Frame rate : 23.976 FPS Video Format : AVC Format/Info : Advanced Video Codec Duration : 1 h 55 min Width : 1 920 pixels Height : 804 pixels Frame rate : 23.976 (24000/1001) FPS Stream size : 1.81 GiB (68%) Ses 1 Format : AC-3 Format/Info : Audio Coding 3 Duration : 1 h 55 min Channel(s) : 6 channels Frame rate : 31.250 FPS (1536 SPF) Stream size : 527 MiB (19%) Language : Türkçe Ses 2 Format : AAC LC Format/Info : Advanced Audio Codec Low Complexity Duration : 1 h 55 min Channel(s) : 6 channels Frame rate : 46.875 FPS (1024 SPF) Stream size : 316 MiB (12%) Language : English Altyazı #1 Format : PGS Duration : 1 h 53 min Frame rate : 0.387 FPS Stream size : 24.1 MiB (1%) Language : Türkçe Altyazı #2 Format : PGS Duration : 1 h 47 min Frame rate : 0.402 FPS Stream size : 24.5 MiB (1%) Language : English Altyazı #3 Format : PGS Duration : 1 h 48 min Frame rate : 0.500 FPS Stream size : 29.6 MiB (1%) Language : English İNDİRME LİNKİ SuperUp turbobit.net, gofile.io, doodrive.com, megaup.net, send.cm, 1fichier.com, mixdrop.ag, pixeldrain.com, streamtape.com, rapidgator.net
    0 Cevap | 9 Görüntüleme
  • SuperUp nickli üyeye ait kullanıcı resmi (Avatar)
    5 Saat önce
    Hayalet Avcıları: Ürperti - Ghostbusters: Frozen Empire (2024) 2160p DUAL AMZN WEB-DL H265 HDR DDP5.1 - TURG IMDB LİNKİ Tür: Fantastik, Macera, Komedi Spengler ailesi, hayaletleri bir sonraki seviyeye taşımak için çok gizli bir araştırma laboratuvarı geliştiren asıl Hayalet Avcıları ile ekip oluşturmak için her şeyin başladığı yere, ikonik New York City itfaiyesine geri döner. Ancak eski bir eserin keşfi şeytani bir gücü serbest bıraktığında evlerini korumak ve dünyayı ikinci bir Buzul Çağı'ndan kurtarmak için yeni ve eski Hayalet Avcıları güçlerini birleştirmelidir. Oyuncular: Mckenna Grace, Paul Rudd, Carrie Coon, Finn Wolfhard, Dan Aykroyd, Kumail Nanjiani, Patton Oswalt, Logan Kim, Emily Alyn Lind FİLM TANITIM LİNKİ FİLMDEN KARELER General Format : Matroska File size : 13.0 GiB Duration : 1 h 56 min Overall bit rate : 16.0 Mb/s Frame rate : 23.976 FPS Video Format : HEVC Format/Info : High Efficiency Video Coding Duration : 1 h 56 min Width : 3 840 pixels Height : 1 600 pixels Frame rate : 23.976 (24000/1001) FPS Stream size : 12.0 GiB (92%) Ses 1 Format : E-AC-3 Duration : 1 h 56 min Channel(s) : 6 channels Frame rate : 31.250 FPS (1536 SPF) Stream size : 534 MiB (4%) Language : English Ses 2 Format : AC-3 Format/Info : Audio Coding 3 Duration : 1 h 55 min Channel(s) : 6 channels Frame rate : 31.250 FPS (1536 SPF) Stream size : 527 MiB (4%) Language : Türkçe Altyazı #1 Format : UTF-8 Duration : 1 h 54 min Frame rate : 0.296 FPS Stream size : 56.3 KiB (0%) Language : English Altyazı #2 Format : PGS Duration : 1 h 53 min Frame rate : 0.387 FPS Stream size : 24.1 MiB (0%) Language : Türkçe İNDİRME LİNKİ SuperUp turbobit.net, gofile.io, doodrive.com, megaup.net, send.cm, 1fichier.com, mixdrop.ag, pixeldrain.com, streamtape.com, rapidgator.net
    0 Cevap | 2 Görüntüleme
Daha Fazla Etkinlik
SuperUp Hakkinda

Temel Bilgiler

Signatürü


İstatistik


Toplam konu
Toplam konu
5898 (6.51%)
Günlük konu
85.10
Mesaj adeti
Mesaj adeti
6,251 (4.43%)
Günlük Ortalama Mesajlar
90.19
Son Mesaj
Hayali Arkadaşlar - IF (2024) 1080p Türkçe Altyazılı AMZN WEB-DL H264 DDP5.1 Atmos 38 Dakika önce
Toplam teşekkür
Toplam teşekkür
261
Genel Bilgiler
Son Aktivitesi
1 dakika önce
Üyelik tarihi
14.Nisan.2024
Tavsiye Puanı
1

3 Arkadaşlar

  1. Cloudrip Cloudrip isimli Üye şuanda  online konumundadır

    Filmrip Üye

    Cloudrip
  2. solofurky solofurky isimli Üye şimdilik offline konumundadır

    Filmrip Üye

    solofurky
  3. Spor01 Spor01 isimli Üye şuanda  online konumundadır

    Filmrip Üye

    Spor01
Arkadaşlar gösterme 1 to 3 of 3
View SuperUp's Blog

Recent Entries

Hayali Arkadaşlar - IF (2024) 1080p Türkçe Altyazılı AMZN WEB-DL H264 DDP5.1 Atmos

by SuperUp on 38 Dakika önce at 19:40
Hayali Arkadaşlar - IF (2024) 1080p Türkçe Altyazılı AMZN WEB-DL H264 DDP5.1 Atmos


IMDB LİNKİ

Tür: Komedi, Fantastik, Aile

Yalnızlıktan muzdarip olan bir adam, hayali arkadaşlar görmenin ve onlarla konuşmanın inanılmaz gücünü keşfeder. Böylece yakınları tarafından unutulmuş birçok insanla arkadaş olur. Ancak içlerinden

Read More

Hayali Arkadaşlar - IF (2024) m1080p Türkçe Altyazılı WEBRip x265

by SuperUp on 1 saat önce at 19:07
Hayali Arkadaşlar - IF (2024) m1080p Türkçe Altyazılı WEBRip x265


IMDB LİNKİ

Tür: Komedi, Fantastik, Aile

Yalnızlıktan muzdarip olan bir adam, hayali arkadaşlar görmenin ve onlarla konuşmanın inanılmaz gücünü keşfeder. Böylece yakınları tarafından unutulmuş birçok insanla arkadaş olur. Ancak içlerinden bazılarının karanlık

Read More

Updated 43 Dakika önce at 19:36 by SuperUp

Katagoriler
Orjinal Dil SuperUp Paylaşımları , ‎ Türkçe Altyazılı SuperUp Sunumları

İhtiyarlara Yer Yok - No Country for Old Men (2007) 1080p DUAL BluRay REMUX AVC - TURG

by SuperUp on 1 saat önce at 18:38
İhtiyarlara Yer Yok - No Country for Old Men (2007) 1080p DUAL BluRay REMUX AVC - TURG


IMDB LİNKİ

Tür: Suç, Dram, Gerilim

Kötü giden bir uyuşturucu işi ve bir çanta dolusu para masum bir avcının, emektar bir şerifin ve acımasız bir kiralık katilin yolunu ıssız Batı Teksas çölünde kesiştirir.

Oyuncular:

Read More

Gözü Tamamen Kapalı - Eyes Wide Shut (1999) 1080p Türkçe Altyazılı WEB-DL H264 DD5.1

by SuperUp on 1 saat önce at 18:37
Gözü Tamamen Kapalı - Eyes Wide Shut (1999) 1080p Türkçe Altyazılı WEB-DL H264 DD5.1


IMDB LİNKİ

Tür: Dram, Gerilim, Gizem

Bill Harford ve karısı Alice Harford'ın dış dünyaya mutlu bir yansıyan bir evlilikleri vardır. İlişkilerinde her şey yolunda gibi görünmektedir. Bir gün katıldıkları bir davette Alice, başka

Read More

Sefiller - Les Miserables (2012) 1080p DUAL AMZN WEB-DL x264 - HdT

by SuperUp on 1 saat önce at 18:23
Sefiller - Les Miserables (2012) 1080p DUAL AMZN WEB-DL x264 - HdT


IMDB LİNKİ

Tür: Tarih, Dram

Jean Valjean olarak bilinen 24601 nolu mahkum, hapishaneden salınır. Kendisine yeni bir hayat kurmak ister ama müfettiş Javert'in gölgesi onu daima takip etmektedir. Jean Valjean Fantine'in kızı Cosette ile ilgilenmeyi

Read More

1 2 3 4 5 6 7 8 9 10 11 12 13 14 15 16 17 18 19 20 21 22 23 24 25 26 27 28 29 30 31 32 33 34 35 36 37 38 39 40 41 42 43 44 45 46 47 48 49 50 51 52 53 54 55 56 57 58 59 60 61 62 63 64 65 66 67 68 69 70 71 72 73 74 75 76 77 78 79 80 81 82 83 84 85 86 87 88 89 90 91 92 93 94 95 96 97 98 99 100 101 102 103 104 105 106 107 108 109 110 111 112 113 114 115 116 117 118 119 120 121 122 123 124 125 126 127 128 129 130 131 132 133 134 135 136 137 138 139 140 141 142 143 144 145 146 147 148 149 150 151 152 153 154 155 156 157 158 159 160 161 162 163 164 165 166 167 168 169 170 171 172 173 174 175 176 177 178 179 180 181 182 183 184 185 186 187 188 189 190 191 192 193 194 195 196 197 198 199 200 201 202 203 204 205 206 207 208 209 210