• WaRKeR nickli üyeye ait kullanıcı resmi (Avatar)
    2 Gün önce
    06.bölüm eklendi
    1 Cevap | 67 Görüntüleme
  • WaRKeR nickli üyeye ait kullanıcı resmi (Avatar)
    4 Gün önce
    04.bölüm eklendi
    1 Cevap | 43 Görüntüleme
  • WaRKeR nickli üyeye ait kullanıcı resmi (Avatar)
    4 Gün önce
    06.bölüm eklendi
    1 Cevap | 77 Görüntüleme
  • WaRKeR nickli üyeye ait kullanıcı resmi (Avatar)
    1 hafta önce
    Garip Vizyon tarihi : 1986 FuLLHD 1080p HD TVRip Video: MPEG4 Video (H264) 1920x1080 25 fps 3307 KBps, Audio: Dolby AC3 48 KHz stereo 256 kbps, 2.14 GB Oyuncular ; Kemal Sunal, Nilgün Sarayli, Ece Alton Hikaye, kızını yaşayan bir adamın hüzünlü hayatı hakkında. Pek çok sorunu yönetirler ama birbirlerinden asla ayrılmazlar. Turbobit.NeT Link Bağlantıları Turbobit Premium Click for Support Thanks! Garip_HDTV.1080p.x264.AC3.DD2.0.256k_RippeD.WaRKeR.mkv ...Keyifli Seyirler... >>> Uptobox Premium almak isteyenlere Referansım <<< >>> Uploaded.to Premium almak isteyenlere Referansım <<< >>> TurboBit Premium almak isteyenlere Referansım <<<
    1 Cevap | 120 Görüntüleme
  • WaRKeR nickli üyeye ait kullanıcı resmi (Avatar)
    1 hafta önce
    teşekkürler
    7 Cevap | 309 Görüntüleme
  • WaRKeR nickli üyeye ait kullanıcı resmi (Avatar)
    1 hafta önce
    teşekkürler
    10 Cevap | 372 Görüntüleme
  • WaRKeR nickli üyeye ait kullanıcı resmi (Avatar)
    1 hafta önce
    teşekkürler
    8 Cevap | 562 Görüntüleme
  • WaRKeR nickli üyeye ait kullanıcı resmi (Avatar)
    1 hafta önce
    WaRKeR kullanıcısının cevapladığı konu Pamela Anderson Uncensored Kategorisi Full HD Adult Film İndir
    teşekkürler
    5 Cevap | 308 Görüntüleme
  • WaRKeR nickli üyeye ait kullanıcı resmi (Avatar)
    1 hafta önce
    Baş Belası Bütün Bölümler FuLLHD 1080p HDTV Rip https://www.imdb.com/title/tt14588158/ Bir zamanlar güzel bir ailesi olan genç bir kadın psikolog ve genç bir erkek polis memuru hakkında bir hikaye. Bir araya geldiler ve davaları birlikte çözmeye karar verdiler. Format : Matroska Format version : Version 4 File size : 4.28 GiB Duration : 1 h 59 min Overall bit rate : 5 141 kb/s Encoded date : UTC 2021-06-21 17:27:24 Writing application : mkvmerge v56.1.0 ('My Friend') 64-bit Writing library : libebml v1.4.2 + libmatroska v1.6.4 Video ID : 1 Format : AVC Format/Info : Advanced Video Codec Format profile : High@L4.1 Format settings : CABAC / 4 Ref Frames Format settings, CABAC : Yes Format settings, Reference : 4 frames Codec ID : V_MPEG4/ISO/AVC Duration : 1 h 59 min Bit rate : 4 884 kb/s Width : 1 920 pixels Height : 1 080 pixels Display aspect ratio : 16:9 Frame rate mode : Constant Frame rate : 25.000 FPS Color space : YUV Chroma subsampling : 4:2:0 Bit depth : 8 bits Scan type : Progressive Bits/(Pixel*Frame) : 0.094 Stream size : 4.07 GiB (95%) Writing library : x264 core 142 r2431 ac76440 Encoding settings : cabac=1 / ref=1 / deblock=1:-1:-1 / analyse=0x3:0x3 / me=dia / subme=1 / psy=1 / psy_rd=1.00:0.00 / mixed_ref=0 / me_range=16 / chroma_me=1 / trellis=0 / 8x8dct=1 / cqm=0 / deadzone=21,11 / fast_pskip=1 / chroma_qp_offset=0 / threads=3 / lookahead_threads=1 / sliced_threads=0 / nr=0 / decimate=1 / interlaced=0 / bluray_compat=0 / constrained_intra=0 / bframes=3 / b_pyramid=2 / b_adapt=1 / b_bias=0 / direct=1 / weightb=1 / open_gop=0 / weightp=1 / keyint=250 / keyint_min=25 / scenecut=40 / intra_refresh=0 / rc_lookahead=0 / rc=2pass / mbtree=0 / bitrate=4884 / ratetol=1.0 / qcomp=0.60 / qpmin=10 / qpmax=51 / qpstep=4 / cplxblur=20.0 / qblur=0.5 / vbv_maxrate=62500 / vbv_bufsize=78125 / nal_hrd=none / filler=0 / ip_ratio=1.40 / pb_ratio=1.30 / aq=1:1.00 Default : Yes Forced : No Audio ID : 2 Format : AC-3 Format/Info : Audio Coding 3 Commercial name : Dolby Digital Codec ID : A_AC3 Duration : 1 h 59 min Bit rate mode : Constant Bit rate : 256 kb/s Channel(s) : 2 channels Channel layout : L R Sampling rate : 48.0 kHz Frame rate : 31.250 FPS (1536 SPF) Compression mode : Lossy Stream size : 218 MiB (5%) Service kind : Complete Main Default : Yes Forced : No Yeni Bölümler Her Hafta Bu Konu Altına Eklenecektir. Turbobit.NeT Link Bağlantıları Turbobit Premium Click for Support Thanks! Bas.Belasi_01.BLM.HDTV.1080p.x264.AC3.DD2.0.256k_RippeD.WaRKeR.mkv Bas.Belasi_02.BLM.HDTV.1080p.x264.AC3.DD2.0.256k_RippeD.WaRKeR.mkv Bas.Belasi_03.BLM.HDTV.1080p.x264.AC3.DD2.0.256k_RippeD.WaRKeR.mkv Bas.Belasi_04.BLM.HDTV.1080p.x264.AC3.DD2.0.256k_RippeD.WaRKeR.mkv Bas.Belasi_05.BLM.HDTV.1080p.x264.AC3.DD2.0.256k_RippeD.WaRKeR.mkv Bas.Belasi_06.BLM.HDTV.1080p.x264.AC3.DD2.0.256k_RippeD.WaRKeR.mkv ...Keyifli Seyirler... >>> Uptobox Premium almak isteyenlere Referansım <<< >>> Uploaded.to Premium almak isteyenlere Referansım <<< >>> TurboBit Premium almak isteyenlere Referansım <<<
    1 Cevap | 77 Görüntüleme
  • WaRKeR nickli üyeye ait kullanıcı resmi (Avatar)
    1 hafta önce
    SexLife Bütün Bölümler FuLLHD 1080p WEB-DL https://www.imdb.com/title/tt10839422/ İki çocuklu bir banliyö annesi, çok evli hediyesini vahşi çocuk geçmişiyle bir çarpışma rotasına sokan hafıza şeridinde fantezi yüklü bir yolculuk yapar. Format : Matroska Format version : Version 4 File size : 1.80 GiB Duration : 45 min 37 s Overall bit rate : 5 637 kb/s Encoded date : UTC 2021-07-17 11:36:44 Writing application : mkvmerge v56.1.0 ('My Friend') 64-bit Writing library : libebml v1.4.2 + libmatroska v1.6.4 Video ID : 1 Format : AVC Format/Info : Advanced Video Codec Format profile : Baseline@L4 Format settings : 1 Ref Frames Format settings, CABAC : No Format settings, Reference : 1 frame Codec ID : V_MPEG4/ISO/AVC Duration : 45 min 37 s Bit rate : 4 996 kb/s Width : 1 920 pixels Height : 1 080 pixels Display aspect ratio : 16:9 Frame rate mode : Constant Frame rate : 23.976 (24000/1001) FPS Color space : YUV Chroma subsampling : 4:2:0 Bit depth : 8 bits Scan type : Progressive Bits/(Pixel*Frame) : 0.100 Stream size : 1.59 GiB (89%) Default : Yes Forced : No Audio ID : 2 Format : E-AC-3 Format/Info : Enhanced AC-3 Commercial name : Dolby Digital Plus Codec ID : A_EAC3 Duration : 45 min 37 s Bit rate mode : Constant Bit rate : 640 kb/s Channel(s) : 6 channels Channel layout : L R C LFE Ls Rs Sampling rate : 48.0 kHz Frame rate : 31.250 FPS (1536 SPF) Compression mode : Lossy Stream size : 209 MiB (11%) Language : Turkish Service kind : Complete Main Default : Yes Forced : No Turbobit.NeT Link Bağlantıları Turbobit Premium Click for Support Thanks! SexLife.(2021).S01E01.1080p.NF.WEB-DL.DDP5.1.AC3.x264-RippeD.WaRKeR.mkv SexLife.(2021).S01E02.1080p.NF.WEB-DL.DDP5.1.AC3.x264-RippeD.WaRKeR.mkv SexLife.(2021).S01E03.1080p.NF.WEB-DL.DDP5.1.AC3.x264-RippeD.WaRKeR.mkv SexLife.(2021).S01E04.1080p.NF.WEB-DL.DDP5.1.AC3.x264-RippeD.WaRKeR.mkv SexLife.(2021).S01E05.1080p.NF.WEB-DL.DDP5.1.AC3.x264-RippeD.WaRKeR.mkv SexLife.(2021).S01E06.1080p.NF.WEB-DL.DDP5.1.AC3.x264-RippeD.WaRKeR.mkv SexLife.(2021).S01E07.1080p.NF.WEB-DL.DDP5.1.AC3.x264-RippeD.WaRKeR.mkv SexLife.(2021).S01E08.1080p.NF.WEB-DL.DDP5.1.AC3.x264-RippeD.WaRKeR.mkv ...Keyifli Seyirler... >>> Uptobox Premium almak isteyenlere Referansım <<< >>> Uploaded.to Premium almak isteyenlere Referansım <<< >>> TurboBit Premium almak isteyenlere Referansım <<<
    0 Cevap | 72 Görüntüleme
  • WaRKeR nickli üyeye ait kullanıcı resmi (Avatar)
    1 hafta önce
    Yayınlanmış tüm bölümler eklenmiştir
    33 Cevap | 1269 Görüntüleme
  • WaRKeR nickli üyeye ait kullanıcı resmi (Avatar)
    1 hafta önce
    Ada Masalı Bütün Bölümler FuLLHD 1080p HDTV Rip https://www.imdb.com/title/tt14411808/ Şehirli iş kadını Haziran ile adanın yakışıklı ve yardımsever genci Poyraz'ın Kırlangıç ​​Adası'nda kesişen yolları. Zıt karakterlere sahip ikilinin anlaşmazlıklarından doğacak aşk Format : Matroska Format version : Version 4 File size : 4.28 GiB Duration : 2 h 6 min Overall bit rate : 4 854 kb/s Encoded date : UTC 2021-06-29 17:09:59 Writing application : mkvmerge v56.1.0 ('My Friend') 64-bit Writing library : libebml v1.4.2 + libmatroska v1.6.4 Video Format : Matroska Format version : Version 4 File size : 4.28 GiB Duration : 1 h 52 min Overall bit rate : 5 433 kb/s Encoded date : UTC 2021-06-16 16:48:24 Writing application : mkvmerge v56.1.0 ('My Friend') 64-bit Writing library : libebml v1.4.2 + libmatroska v1.6.4 Video ID : 1 Format : AVC Format/Info : Advanced Video Codec Format profile : High@L4.1 Format settings : CABAC / 4 Ref Frames Format settings, CABAC : Yes Format settings, Reference : 4 frames Codec ID : V_MPEG4/ISO/AVC Duration : 1 h 52 min Bit rate : 5 175 kb/s Width : 1 920 pixels Height : 1 080 pixels Display aspect ratio : 16:9 Frame rate mode : Constant Frame rate : 25.000 FPS Color space : YUV Chroma subsampling : 4:2:0 Bit depth : 8 bits Scan type : Progressive Bits/(Pixel*Frame) : 0.100 Stream size : 4.08 GiB (95%) Writing library : x264 core 142 r2431 ac76440 Encoding settings : cabac=1 / ref=1 / deblock=1:-1:-1 / analyse=0x3:0x3 / me=dia / subme=1 / psy=1 / psy_rd=1.00:0.00 / mixed_ref=0 / me_range=16 / chroma_me=1 / trellis=0 / 8x8dct=1 / cqm=0 / deadzone=21,11 / fast_pskip=1 / chroma_qp_offset=0 / threads=3 / lookahead_threads=1 / sliced_threads=0 / nr=0 / decimate=1 / interlaced=0 / bluray_compat=0 / constrained_intra=0 / bframes=3 / b_pyramid=2 / b_adapt=1 / b_bias=0 / direct=1 / weightb=1 / open_gop=0 / weightp=1 / keyint=250 / keyint_min=25 / scenecut=40 / intra_refresh=0 / rc_lookahead=0 / rc=2pass / mbtree=0 / bitrate=5175 / ratetol=1.0 / qcomp=0.60 / qpmin=10 / qpmax=51 / qpstep=4 / cplxblur=20.0 / qblur=0.5 / vbv_maxrate=62500 / vbv_bufsize=78125 / nal_hrd=none / filler=0 / ip_ratio=1.40 / pb_ratio=1.30 / aq=1:1.00 Default : Yes Forced : No Audio ID : 2 Format : AC-3 Format/Info : Audio Coding 3 Commercial name : Dolby Digital Codec ID : A_AC3 Duration : 1 h 52 min Bit rate mode : Constant Bit rate : 256 kb/s Channel(s) : 2 channels Channel layout : L R Sampling rate : 48.0 kHz Frame rate : 31.250 FPS (1536 SPF) Compression mode : Lossy Stream size : 207 MiB (5%) Service kind : Complete Main Default : Yes Forced : No Yeni Bölümler Her Hafta Bu Konu Altına Eklenecektir. Turbobit.NeT Link Bağlantıları Turbobit Premium Click for Support Thanks! Ada.Masali_01.BLM.HDTV.1080p.x264.AC3.DD2.0.256k_RippeD.WaRKeR.mkv Ada.Masali_02.BLM.HDTV.1080p.x264.AC3.DD2.0.256k_RippeD.WaRKeR.mkv Ada.Masali_03.BLM.HDTV.1080p.x264.AC3.DD2.0.256k_RippeD.WaRKeR.mkv Ada.Masali_04.BLM.HDTV.1080p.x264.AC3.DD2.0.256k_RippeD.WaRKeR.mkv Ada.Masali_05.BLM.HDTV.1080p.x264.AC3.DD2.0.256k_RippeD.WaRKeR.mkv Ada.Masali_06.BLM.HDTV.1080p.x264.AC3.DD2.0.256k_RippeD.WaRKeR.mkv ...Keyifli Seyirler... >>> Uptobox Premium almak isteyenlere Referansım <<< >>> Uploaded.to Premium almak isteyenlere Referansım <<< >>> TurboBit Premium almak isteyenlere Referansım <<<
    1 Cevap | 67 Görüntüleme
  • WaRKeR nickli üyeye ait kullanıcı resmi (Avatar)
    1 hafta önce
    Kalp Yarası Bütün Bölümler FuLLHD 1080p HDTV Rip https://www.imdb.com/title/tt14404174/ Ferit Sancakzade, Antakya'nın köklü ailelerinden birinin aziz varisi. Ayşe ise kendi ayakları üzerinde durmayı başarmış, İstanbul'da yaşayan hayat dolu bir genç kızdır. Ailesinin seçimi Varoğlu Ailesi'nin kızı Hande ile evlenmek üzere olan Ferit, düğün öncesi gerçeklerle yüzleşir ve dünyası alt üst olur. İhanetle sarsılan Ferit'in yolu Ayşe ile kesişir. İkisi, tesadüfi karşılaşmalarının ardından kendilerini zorlu bir evlilik oyununun içinde bulur. Medeniyetlerin beşiği olan kadim bir toprak olan Antakya'da geçen hikaye, dostluğu sevgiyle, geçmişi gelecekle, tutkuyu sabırla sınayarak gerçek bir aşk hikayesine dönüşüyor. Format : Matroska Format version : Version 4 File size : 4.28 GiB Duration : 2 h 6 min Overall bit rate : 4 854 kb/s Encoded date : UTC 2021-06-29 17:09:59 Writing application : mkvmerge v56.1.0 ('My Friend') 64-bit Writing library : libebml v1.4.2 + libmatroska v1.6.4 Video ID : 1 Format : AVC Format/Info : Advanced Video Codec Format profile : High@L4.1 Format settings : CABAC / 4 Ref Frames Format settings, CABAC : Yes Format settings, Reference : 4 frames Codec ID : V_MPEG4/ISO/AVC Duration : 2 h 6 min Bit rate : 4 597 kb/s Width : 1 920 pixels Height : 1 080 pixels Display aspect ratio : 16:9 Frame rate mode : Constant Frame rate : 25.000 FPS Color space : YUV Chroma subsampling : 4:2:0 Bit depth : 8 bits Scan type : Progressive Bits/(Pixel*Frame) : 0.089 Stream size : 4.05 GiB (95%) Writing library : x264 core 142 r2431 ac76440 Encoding settings : cabac=1 / ref=1 / deblock=1:-1:-1 / analyse=0x3:0x3 / me=dia / subme=1 / psy=1 / psy_rd=1.00:0.00 / mixed_ref=0 / me_range=16 / chroma_me=1 / trellis=0 / 8x8dct=1 / cqm=0 / deadzone=21,11 / fast_pskip=1 / chroma_qp_offset=0 / threads=3 / lookahead_threads=1 / sliced_threads=0 / nr=0 / decimate=1 / interlaced=0 / bluray_compat=0 / constrained_intra=0 / bframes=3 / b_pyramid=2 / b_adapt=1 / b_bias=0 / direct=1 / weightb=1 / open_gop=0 / weightp=1 / keyint=250 / keyint_min=25 / scenecut=40 / intra_refresh=0 / rc_lookahead=0 / rc=2pass / mbtree=0 / bitrate=4597 / ratetol=1.0 / qcomp=0.60 / qpmin=10 / qpmax=51 / qpstep=4 / cplxblur=20.0 / qblur=0.5 / vbv_maxrate=62500 / vbv_bufsize=78125 / nal_hrd=none / filler=0 / ip_ratio=1.40 / pb_ratio=1.30 / aq=1:1.00 Default : Yes Forced : No Audio ID : 2 Format : AC-3 Format/Info : Audio Coding 3 Commercial name : Dolby Digital Codec ID : A_AC3 Duration : 2 h 6 min Bit rate mode : Constant Bit rate : 256 kb/s Channel(s) : 2 channels Channel layout : L R Sampling rate : 48.0 kHz Frame rate : 31.250 FPS (1536 SPF) Compression mode : Lossy Stream size : 231 MiB (5%) Service kind : Complete Main Default : Yes Forced : No Yeni Bölümler Her Hafta Bu Konu Altına Eklenecektir. Turbobit.NeT Link Bağlantıları Turbobit Premium Click for Support Thanks! Kalp.Yarasi_01.BLM.HDTV.1080p.x264.AC3.DD2.0.256k_RippeD.WaRKeR.mkv Kalp.Yarasi_02.BLM.HDTV.1080p.x264.AC3.DD2.0.256k_RippeD.WaRKeR.mkv Kalp.Yarasi_03.BLM.HDTV.1080p.x264.AC3.DD2.0.256k_RippeD.WaRKeR.mkv Kalp.Yarasi_04.BLM.HDTV.1080p.x264.AC3.DD2.0.256k_RippeD.WaRKeR.mkv ...Keyifli Seyirler... >>> Uptobox Premium almak isteyenlere Referansım <<< >>> Uploaded.to Premium almak isteyenlere Referansım <<< >>> TurboBit Premium almak isteyenlere Referansım <<<
    1 Cevap | 43 Görüntüleme
  • WaRKeR nickli üyeye ait kullanıcı resmi (Avatar)
    0 Cevap | 36 Görüntüleme
Daha Fazla Sonuç Yok
WaRKeR Hakkinda

Temel Bilgiler

İstatistik


Toplam konu
Toplam konu
28 (0.02%)
Günlük konu
0.17
Mesaj adeti
Mesaj adeti
59 (0.02%)
Günlük Ortalama Mesajlar
0.35
Son Mesaj
Ada Masalı - Tüm Bölmler | HDTV | 1080p | X264 | AC3 | WaRKeR 2 Gün önce
Toplam teşekkür
Toplam teşekkür
47
Genel Bilgiler
Son Aktivitesi
2 Saat önce
Üyelik tarihi
15.Şubat.2021
Tavsiye Puanı
0
1 2 3 4 5 6 7 8 9 10 11 12 13 14 15 16 17 18 19 20 21 22 23 24 25 26 27 28 29 30 31 32 33 34 35 36 37 38 39 40 41 42 43 44 45 46 47 48 49 50 51 52 53 54 55 56 57 58 59 60 61 62 63 64 65 66 67 68 69 70 71 72 73 74 75 76 77 78 79 80 81 82 83 84 85 86 87 88 89 90 91 92 93 94 95 96 97 98 99 100 101 102 103 104 105 106 107 108 109 110 111 112 113 114 115 116 117 118 119 120 121 122 123 124 125 126 127 128 129 130 131 132 133 134 135 136 137 138 139 140 141 142 143 144 145 146 147 148 149 150 151 152 153 154 155 156 157 158 159 160 161 162 163 164 165 166 167 168 169 170 171 172 173 174 175 176 177 178 179 180 181 182 183 184 185 186 187 188 189 190 191 192 193 194 195 196 197 198 199 200 201 202 203 204 205 206 207 208 209 210 211 212 213 214 215 216 217 218 219 220 221 222 223 224 225 226 227 228 229 230