Toplam 4 adet sonuctan sayfa basi 1 ile 4 arasi kadar sonuc gösteriliyor

Konu: Fantastik Canavarlar: Dumbledore'un Sırları - Fantastic Beasts: The Secrets of Dumbledore (2022) 2160p BluRay REMUX HEVC DUAL - HdT

  1. #1
    Super Moderator SuperUp - ait Kullanıcı Resmi (Avatar)
    Üyelik tarihi
    14 Nisan 2024
    Mesajlar
    5,129
    Konular
    4851
    Teşekkürleri
    2854
    Blog Entries
    993
    Tecrübe Puanı
    286

    Wink Fantastik Canavarlar: Dumbledore'un Sırları - Fantastic Beasts: The Secrets of Dumbledore (2022) 2160p BluRay REMUX HEVC DUAL - HdT

    Fantastik Canavarlar: Dumbledore'un Sırları - Fantastic Beasts: The Secrets of Dumbledore (2022) 2160p BluRay REMUX HEVC DUAL - HdT

    [Ziyaretçiler üye olmadan, üyelerimiz ise konuya mesaj yazmadan linkleri görüntüleyemezler.Ziyaretçiler üye olmadan, üyelerimiz ise konuya mesaj yazmadan linkleri görüntüleyemezler.]
    Tür: Fantastik, Macera
    Profesör Albus Dumbledore, güçlü Karanlık büyücü Gellert Grindelwald'ın, büyücülük dünyasını kontrol etmek için harekete geçtiğini bilmektedir. Tek başına onu durduramayacağından, bir Büyüzoolojist olan Newt Scamander'i, büyücüler, cadılar ve cesur bir fırıncıdan oluşan bir takımı yönetmekle görevlendirir. Bu tehlikleli görev için eski ve yeni canavarları biraraya getiren takım, Grindelwald'ın büyümekte olan çiçekler birliği ile çarpışacaklardır. Ama, riskler bu kadar yüksekken, Dumbledore daha ne kadar kenarda kalabilir ki?
    [Ziyaretçiler üye olmadan, üyelerimiz ise konuya mesaj yazmadan linkleri görüntüleyemezler.Ziyaretçiler üye olmadan, üyelerimiz ise konuya mesaj yazmadan linkleri görüntüleyemezler.]
    FİLMDEN KARELER

    Kod:
    General
    Format         : Matroska
    File size        : 59.7 GiB
    Duration         : 2 h 22 min
    Overall bit rate mode     : Variable
    Overall bit rate       : 59.9 Mb/s
    Frame rate        : 23.976 FPS
    Video
    Format         : HEVC
    Format/Info        : High Efficiency Video Coding
    Duration         : 2 h 22 min
    Width         : 3 840 pixels
    Height         : 2 160 pixels
    Frame rate        : 23.976 (24000/1001) FPS
    Stream size        : 56.3 GiB (94%)
    Language         : English
    Audio #1
    Format         : MLP FBA 16-ch
    Duration         : 2 h 22 min
    Channel(s)        : 8 channels
    Frame rate        : 1 200.000 FPS (40 SPF)
    Stream size        : 2.73 GiB (5%)
    Language         : English
    Audio #2
    Format         : AC-3
    Format/Info        : Audio Coding 3
    Duration         : 2 h 22 min
    Channel(s)        : 6 channels
    Frame rate        : 31.250 FPS (1536 SPF)
    Stream size        : 457 MiB (1%)
    Language         : English
    Text #1
    Format         : PGS
    Duration         : 2 h 20 min
    Frame rate        : 0.433 FPS
    Stream size        : 29.1 MiB (0%)
    Language         : English
    Text #2
    Format         : PGS
    Duration         : 2 h 21 min
    Frame rate        : 0.286 FPS
    Stream size        : 18.3 MiB (0%)
    Language         : French
    Text #3
    Format         : PGS
    Duration         : 2 h 17 min
    Frame rate        : 0.385 FPS
    Stream size        : 31.7 MiB (0%)
    Language         : German
    Text #4
    Format         : PGS
    Duration         : 2 h 22 min
    Frame rate        : 0.424 FPS
    Stream size        : 27.4 MiB (0%)
    Language         : Italian
    Text #5
    Format         : PGS
    Duration         : 2 h 21 min
    Frame rate        : 0.272 FPS
    Stream size        : 20.6 MiB (0%)
    Language         : Chinese
    Text #6
    Format         : PGS
    Duration         : 2 h 21 min
    Frame rate        : 0.289 FPS
    Stream size        : 20.0 MiB (0%)
    Language         : Chinese
    Text #7
    Format         : PGS
    Duration         : 2 h 21 min
    Frame rate        : 0.285 FPS
    Stream size        : 12.2 MiB (0%)
    Language         : Korean
    Text #8
    Format         : PGS
    Duration         : 2 h 21 min
    Frame rate        : 0.287 FPS
    Stream size        : 20.2 MiB (0%)
    Language         : Spanish
    Text #9
    Format         : PGS
    Duration         : 2 h 21 min
    Frame rate        : 0.241 FPS
    Stream size        : 19.1 MiB (0%)
    Language         : Danish
    Text #10
    Format         : PGS
    Duration         : 2 h 21 min
    Frame rate        : 0.291 FPS
    Stream size        : 19.2 MiB (0%)
    Language         : Finnish
    Text #11
    Format         : PGS
    Duration         : 2 h 21 min
    Frame rate        : 0.229 FPS
    Stream size        : 19.2 MiB (0%)
    Language         : Norwegian
    Text #12
    Format         : PGS
    Duration         : 2 h 21 min
    Frame rate        : 0.221 FPS
    Stream size        : 17.8 MiB (0%)
    Language         : Swedish
    Text #13
    Format         : PGS
    Duration         : 1 h 13 min
    Frame rate        : 0.002 FPS
    Stream size        : 107 KiB (0%)
    Language         : German
    Text #14
    Format         : PGS
    Duration         : 1 h 37 min
    Frame rate        : 0.005 FPS
    Stream size        : 289 KiB (0%)
    Language         : Italian
    Text #15
    Format         : PGS
    Duration         : 1 h 10 min
    Frame rate        : 0.005 FPS
    Stream size        : 198 KiB (0%)
    Language         : French
    Text #16
    Format         : PGS
    Duration         : 1 h 46 min
    Frame rate        : 0.005 FPS
    Stream size        : 289 KiB (0%)
    Language         : Spanish
    [Ziyaretçiler üye olmadan, üyelerimiz ise konuya mesaj yazmadan linkleri görüntüleyemezler.Ziyaretçiler üye olmadan, üyelerimiz ise konuya mesaj yazmadan linkleri görüntüleyemezler.]
    SuperUp

    turbobit.net, gofile.io, doodrive.com, megaup.net, send.cm, 1fichier.com, mixdrop.ag, pixeldrain.com, streamtape.com, rapidgator.net

  2. Aşağıdaki 2 kullanıcımız bu mesaj için SuperUp teşekkür ediyor

    Erdem TERZİ (2 Hafta önce), itom (2 Hafta önce)

  3. #2
    Filmrip Üye Erdem TERZİ - ait Kullanıcı Resmi (Avatar)
    Üyelik tarihi
    16 Şubat 2023
    Mesajlar
    11,163
    Konular
    4
    Teşekkürleri
    5406
    Tecrübe Puanı
    542

    Standart

    Çok iyi bir film, kaçırmayın derim!
    "Şeytanın Zaferi İçin Gerekli Olan Tek Şey, İyi İnsanların Hiçbir Şey Yapmamasıdır." Edmund BURKE (12 Ocak, 1729 - 09 Temmuz, 1797)

  4. Aşağıdaki kullanıcı bu mesajdan dolayı Erdem TERZİ teşekkür ediyor

    Erdem TERZİ (2 Hafta önce)

  5. #3
    Filmrip Üye itom - ait Kullanıcı Resmi (Avatar)
    Üyelik tarihi
    07 Şubat 2023
    Mesajlar
    8,196
    Konular
    0
    Teşekkürleri
    1085
    Tecrübe Puanı
    110

    Standart

    Teşekkürler

  6. #4
    Filmrip Üye povi - ait Kullanıcı Resmi (Avatar)
    Üyelik tarihi
    07 Haziran 2024
    Yaş
    26
    Mesajlar
    34
    Konular
    0
    Teşekkürleri
    15
    Tecrübe Puanı
    2

    Standart

    Teşekkürler

Konu Bilgileri

Bu Konuya Gözatan Kullanıcılar

Şu anda 1 kullanıcı bu konuyu görüntülüyor. (0 kayıtlı ve 1 misafir)

Benzer Konular

  1. Cevap: 1
    Son Mesaj : 07.Mayıs.2024, 08:53
  2. Cevap: 1
    Son Mesaj : 17.Aralık.2023, 15:03
  3. Cevap: 5
    Son Mesaj : 06.Kasım.2023, 08:36
  4. Cevap: 0
    Son Mesaj : 03.Kasım.2023, 13:37
  5. Fantastic Beasts The Secrets of Dumbledore (2022) 1080p BluRay x265-LAMA
    Konu Sahibi lori.yagami Forum 720p 1080p Bluray Orjinal Dildeki Filmler
    Cevap: 0
    Son Mesaj : 28.Mart.2023, 17:11

Thread Participants: 3

Bookmarks

Yetkileriniz

  • Konu Acma Yetkiniz Yok
  • Cevap Yazma Yetkiniz Yok
  • Eklenti Yükleme Yetkiniz Yok
  • Mesajınızı Değiştirme Yetkiniz Yok
  •  
1 2 3 4 5 6 7 8 9 10 11 12 13 14 15 16 17 18 19 20 21 22 23 24 25 26 27 28 29 30 31 32 33 34 35 36 37 38 39 40 41 42 43 44 45 46 47 48 49 50 51 52 53 54 55 56 57 58 59 60 61 62 63 64 65 66 67 68 69 70 71 72 73 74 75 76 77 78 79 80 81 82 83 84 85 86 87 88 89 90 91 92 93 94 95 96 97 98 99 100 101 102 103 104 105 106 107 108 109 110 111 112 113 114 115 116 117 118 119 120 121 122 123 124 125 126 127 128 129 130 131 132 133 134 135 136 137 138 139 140 141 142 143 144 145 146 147 148 149 150 151 152 153 154 155 156 157 158 159 160 161 162 163 164 165 166 167 168 169 170 171 172 173 174 175 176 177 178 179 180 181 182 183 184 185 186 187 188 189 190 191 192 193 194 195 196 197 198 199 200 201 202 203 204 205 206 207 208 209 210 211 212