Toplam 3 adet sonuctan sayfa basi 1 ile 3 arasi kadar sonuc gösteriliyor

Konu: Hokkabaz (2006) 1080p WEB-DL x264

  1. #1
    Super Moderator SuperUp - ait Kullanıcı Resmi (Avatar)
    Üyelik tarihi
    14 Nisan 2024
    Mesajlar
    5,454
    Konular
    5148
    Teşekkürleri
    3011
    Blog Entries
    1297
    Tecrübe Puanı
    302

    Standart Hokkabaz (2006) 1080p WEB-DL x264

    Hokkabaz (2006) 1080p WEB-DL x264

    [Ziyaretçiler üye olmadan, üyelerimiz ise konuya mesaj yazmadan linkleri görüntüleyemezler.Ziyaretçiler üye olmadan, üyelerimiz ise konuya mesaj yazmadan linkleri görüntüleyemezler.]
    Tür: Komedi, Dram
    Kariyerini tekrar canlandırmaya çalışan fakat pek de yetenekli olmayan illüzyonist İskender, tura çıkar. Ancak illüzyonlarından biri fazlasıyla iyi gidince ortalık karışır.
    [Ziyaretçiler üye olmadan, üyelerimiz ise konuya mesaj yazmadan linkleri görüntüleyemezler.Ziyaretçiler üye olmadan, üyelerimiz ise konuya mesaj yazmadan linkleri görüntüleyemezler.]
    FİLMDEN KARELER

    Kod:
    General
    Format         : Matroska
    File size        : 6.29 GiB
    Duration         : 1 h 58 min
    Overall bit rate mode     : Variable
    Overall bit rate       : 7 625 kb/s
    Frame rate        : 25.000 FPS
    Video
    Format         : AVC
    Format/Info        : Advanced Video Codec
    Duration         : 1 h 58 min
    Width         : 1 920 pixels
    Height         : 1 080 pixels
    Frame rate        : 25.000 FPS
    Stream size        : 6.18 GiB (98%)
    Audio
    Format         : E-AC-3
    Duration         : 1 h 58 min
    Channel(s)        : 2 channels
    Frame rate        : 31.250 FPS (1536 SPF)
    Stream size        : 108 MiB (2%)
    Language         : Turkish
    Text #1
    Format         : UTF-8
    Duration         : 1 h 54 min
    Frame rate        : 0.238 FPS
    Stream size        : 59.5 KiB (0%)
    Language         : Turkish
    Text #2
    Format         : UTF-8
    Duration         : 1 h 52 min
    Frame rate        : 0.217 FPS
    Stream size        : 57.5 KiB (0%)
    Language         : English
    Text #3
    Format         : UTF-8
    Duration         : 1 h 52 min
    Frame rate        : 0.218 FPS
    Stream size        : 97.2 KiB (0%)
    Language         : Arabic
    Text #4
    Format         : UTF-8
    Duration         : 1 h 52 min
    Frame rate        : 0.217 FPS
    Stream size        : 84.0 KiB (0%)
    Language         : Bulgarian
    Text #5
    Format         : UTF-8
    Duration         : 1 h 52 min
    Frame rate        : 0.205 FPS
    Stream size        : 49.3 KiB (0%)
    Language         : Danish
    Text #6
    Format         : UTF-8
    Duration         : 1 h 52 min
    Frame rate        : 0.218 FPS
    Stream size        : 63.2 KiB (0%)
    Language         : German
    Text #7
    Format         : UTF-8
    Duration         : 1 h 52 min
    Frame rate        : 0.207 FPS
    Stream size        : 84.5 KiB (0%)
    Language         : Greek
    Text #8
    Format         : UTF-8
    Duration         : 1 h 52 min
    Frame rate        : 0.218 FPS
    Stream size        : 56.1 KiB (0%)
    Language         : Spanish
    Text #9
    Format         : UTF-8
    Duration         : 1 h 52 min
    Frame rate        : 0.218 FPS
    Stream size        : 57.1 KiB (0%)
    Language         : Spanish
    Text #10
    Format         : UTF-8
    Duration         : 1 h 52 min
    Frame rate        : 0.187 FPS
    Stream size        : 53.2 KiB (0%)
    Language         : Finnish
    Text #11
    Format         : UTF-8
    Duration         : 1 h 52 min
    Frame rate        : 0.218 FPS
    Stream size        : 63.2 KiB (0%)
    Language         : French
    Text #12
    Format         : UTF-8
    Duration         : 1 h 52 min
    Frame rate        : 0.218 FPS
    Stream size        : 85.9 KiB (0%)
    Language         : Hebrew
    Text #13
    Format         : UTF-8
    Duration         : 1 h 52 min
    Frame rate        : 0.218 FPS
    Stream size        : 55.9 KiB (0%)
    Language         : Italian
    Text #14
    Format         : UTF-8
    Duration         : 1 h 52 min
    Frame rate        : 0.256 FPS
    Stream size        : 56.2 KiB (0%)
    Language         : Japanese
    Text #15
    Format         : UTF-8
    Duration         : 1 h 52 min
    Frame rate        : 0.229 FPS
    Stream size        : 61.0 KiB (0%)
    Language         : Korean
    Text #16
    Format         : UTF-8
    Duration         : 1 h 52 min
    Frame rate        : 0.206 FPS
    Stream size        : 52.9 KiB (0%)
    Language         : Norwegian Bokmal
    Text #17
    Format         : UTF-8
    Duration         : 1 h 52 min
    Frame rate        : 0.218 FPS
    Stream size        : 54.9 KiB (0%)
    Language         : Dutch
    Text #18
    Format         : UTF-8
    Duration         : 1 h 52 min
    Frame rate        : 0.212 FPS
    Stream size        : 52.8 KiB (0%)
    Language         : Polish
    Text #19
    Format         : UTF-8
    Duration         : 1 h 52 min
    Frame rate        : 0.218 FPS
    Stream size        : 51.2 KiB (0%)
    Language         : Portuguese
    Text #20
    Format         : UTF-8
    Duration         : 1 h 52 min
    Frame rate        : 0.218 FPS
    Stream size        : 51.1 KiB (0%)
    Language         : Portuguese
    Text #21
    Format         : UTF-8
    Duration         : 1 h 52 min
    Frame rate        : 0.214 FPS
    Stream size        : 59.0 KiB (0%)
    Language         : Romanian
    Text #22
    Format         : UTF-8
    Duration         : 1 h 52 min
    Frame rate        : 0.218 FPS
    Stream size        : 49.4 KiB (0%)
    Language         : Swedish
    Text #23
    Format         : UTF-8
    Duration         : 1 h 52 min
    Frame rate        : 0.220 FPS
    Stream size        : 144 KiB (0%)
    Language         : Thai
    Text #24
    Format         : UTF-8
    Duration         : 1 h 52 min
    Frame rate        : 0.227 FPS
    Stream size        : 53.9 KiB (0%)
    Language         : Turkish
    Text #25
    Format         : UTF-8
    Duration         : 1 h 52 min
    Frame rate        : 0.219 FPS
    Stream size        : 52.0 KiB (0%)
    Language         : Chinese
    Text #26
    Format         : UTF-8
    Duration         : 1 h 52 min
    Frame rate        : 0.219 FPS
    Stream size        : 50.5 KiB (0%)
    Language         : Chinese
    Text #27
    Format         : UTF-8
    Duration         : 1 min 37 s
    Frame rate        : 0.020 FPS
    Stream size        : 61.0 Bytes (0%)
    [Ziyaretçiler üye olmadan, üyelerimiz ise konuya mesaj yazmadan linkleri görüntüleyemezler.Ziyaretçiler üye olmadan, üyelerimiz ise konuya mesaj yazmadan linkleri görüntüleyemezler.]
    SuperUp

    turbobit.net, gofile.io, doodrive.com, megaup.net, send.cm, 1fichier.com, mixdrop.ag, pixeldrain.com, streamtape.com, rapidgator.net
    KURBAN BAYRAMI BOYUNCA GÜNLÜK ÜCRETSİZ LİNK SAYISI 10'A ÇIKARILMIŞTIR
    İYİ BAYRAMLAR


    TÜM LİNKLERE SINIRSIZCA ERİŞEBİLMEK İÇİN VIP YA DA SUPER VIP ÜYELİK SATIN ALMANIZ GEREKMEKTEDİR

    İNİYOR VIP ÜYELİK DETAYLARI İÇİN TIKLAYIN

    HER TÜRLÜ SORU VEYA SORUNUNUZDA BANA ÖZEL MESAJ GÖNDEREBİLİRSİNİZ

    İNİYOR.NET İLE İLGİLİ TÜM AÇIKLAMALAR İÇİN BURAYA TIKLAYIN

  2. Aşağıdaki kullanıcı bu mesajdan dolayı SuperUp teşekkür ediyor

    FilmRip (2 Hafta önce)

  3. #2
    Forum Sahibi FilmRip - ait Kullanıcı Resmi (Avatar)
    Üyelik tarihi
    24 Ocak 2021
    Nereden
    TR Ankara
    Yaş
    59
    Mesajlar
    42,994
    Konular
    36935
    Teşekkürleri
    437468
    Tecrübe Puanı
    10

    Standart

    allah sana zeval vermesin kardeşim ellerine emeklerine saglık iyiki varsın






  4. Aşağıdaki kullanıcı bu mesajdan dolayı FilmRip teşekkür ediyor

    FilmRip (1 hafta önce)

  5. #3
    Filmrip Üye okan-51 - ait Kullanıcı Resmi (Avatar)
    Üyelik tarihi
    28 Nisan 2024
    Mesajlar
    166
    Konular
    0
    Teşekkürleri
    63
    Tecrübe Puanı
    7

    Standart

    teşekkürler

Konu Bilgileri

Bu Konuya Gözatan Kullanıcılar

Şu anda 1 kullanıcı bu konuyu görüntülüyor. (0 kayıtlı ve 1 misafir)

Benzer Konular

  1. Hokkabaz (2006) DVDRip x264
    Konu Sahibi SuperUp Forum BRRip & WEB-DL Yerli Filmler
    Cevap: 1
    Son Mesaj : 3 Hafta önce, 13:08
  2. Hokkabaz (2006) 1080p WEB-DL - HdT
    Konu Sahibi SuperUp Forum Cem Yılmaz Stand-Up İndir
    Cevap: 0
    Son Mesaj : 09.Mayıs.2024, 15:25
  3. Hokkabaz (2006) 1080p TV+ WEB-DL AAC2 0 H 264
    Konu Sahibi FilmRip Forum Yerli Filmler
    Cevap: 1
    Son Mesaj : 07.Ağustos.2023, 07:06
  4. Hokkabaz (2006) 1080p TV+ WEB-DL AAC2 0 H 264
    Konu Sahibi FilmRip Forum Yerli Filmler
    Cevap: 2
    Son Mesaj : 25.Mart.2023, 15:32
  5. Hokkabaz (2006) 1080p TV+ WEB-DL AAC2 0 H 264
    Konu Sahibi FilmRip Forum Yerli Filmler
    Cevap: 0
    Son Mesaj : 09.Şubat.2023, 16:33

Thread Participants: 2

Bookmarks

Yetkileriniz

  • Konu Acma Yetkiniz Yok
  • Cevap Yazma Yetkiniz Yok
  • Eklenti Yükleme Yetkiniz Yok
  • Mesajınızı Değiştirme Yetkiniz Yok
  •  
1 2 3 4 5 6 7 8 9 10 11 12 13 14 15 16 17 18 19 20 21 22 23 24 25 26 27 28 29 30 31 32 33 34 35 36 37 38 39 40 41 42 43 44 45 46 47 48 49 50 51 52 53 54 55 56 57 58 59 60 61 62 63 64 65 66 67 68 69 70 71 72 73 74 75 76 77 78 79 80 81 82 83 84 85 86 87 88 89 90 91 92 93 94 95 96 97 98 99 100 101 102 103 104 105 106 107 108 109 110 111 112 113 114 115 116 117 118 119 120 121 122 123 124 125 126 127 128 129 130 131 132 133 134 135 136 137 138 139 140 141 142 143 144 145 146 147 148 149 150 151 152 153 154 155 156 157 158 159 160 161 162 163 164 165 166 167 168 169 170 171 172 173 174 175 176 177 178 179 180 181 182 183 184 185 186 187 188 189 190 191 192 193 194 195 196 197 198 199 200 201 202 203 204 205 206 207 208 209 210 211 212 213