Toplam 3 adet sonuctan sayfa basi 1 ile 3 arasi kadar sonuc gösteriliyor

Konu: Ördeklerin Göçü - Migration (2023) 1080p BluRay REMUX DUAL - TURG

  1. #1
    Super Moderator SuperUp - ait Kullanıcı Resmi (Avatar)
    Üyelik tarihi
    14 Nisan 2024
    Mesajlar
    5,455
    Konular
    5148
    Teşekkürleri
    3014
    Blog Entries
    1297
    Tecrübe Puanı
    302

    Standart Ördeklerin Göçü - Migration (2023) 1080p BluRay REMUX DUAL - TURG

    Ördeklerin Göçü - Migration (2023) 1080p BluRay REMUX DUAL - TURG

    [Ziyaretçiler üye olmadan, üyelerimiz ise konuya mesaj yazmadan linkleri görüntüleyemezler.Ziyaretçiler üye olmadan, üyelerimiz ise konuya mesaj yazmadan linkleri görüntüleyemezler.]
    Tür: Animasyon, Aksiyon, Macera, Komedi, Aile
    Yeşilbaş ailesinin babası Mack, ailesini güvende tutmak için New England Göleti üzerinde sonsuza dek kanat çırpmaktan memnundur. Anne Page, bir şeyleri değiştirmek ve özellikle genç oğulları Dax ile yavru kızları Gwen'e tüm dünyayı göstermek ister. Göçmen bir ördek ailesinin uzak diyarların heyecanlı hikayeleriyle göletlerine inmesinden sonra Pam, Mack'i New York üzerinden tropikal Jamaika'ya gidecekleri bir aile yolculuğuna çıkmaya ikna eder.
    [Ziyaretçiler üye olmadan, üyelerimiz ise konuya mesaj yazmadan linkleri görüntüleyemezler.Ziyaretçiler üye olmadan, üyelerimiz ise konuya mesaj yazmadan linkleri görüntüleyemezler.]
    FİLMDEN KARELER

    Kod:
    General
    Format         : Matroska
    File size        : 21.7 GiB
    Duration         : 1 h 22 min
    Overall bit rate mode     : Variable
    Overall bit rate       : 37.5 Mb/s
    Frame rate        : 23.976 FPS
    Video
    Format         : AVC
    Format/Info        : Advanced Video Codec
    Duration         : 1 h 22 min
    Width         : 1 920 pixels
    Height         : 1 080 pixels
    Frame rate        : 23.976 (24000/1001) FPS
    Stream size        : 18.5 GiB (85%)
    Language         : Tatar
    Audio #1
    Format         : AC-3
    Format/Info        : Audio Coding 3
    Duration         : 1 h 22 min
    Channel(s)        : 6 channels
    Frame rate        : 31.250 FPS (1536 SPF)
    Stream size        : 228 MiB (1%)
    Language         : Turkish
    Audio #2
    Format         : MLP FBA 16-ch
    Duration         : 1 h 22 min
    Channel(s)        : 8 channels
    Frame rate        : 1 200.000 FPS (40 SPF)
    Stream size        : 1.91 GiB (9%)
    Language         : English
    Audio #3
    Format         : AC-3
    Format/Info        : Audio Coding 3
    Duration         : 1 h 22 min
    Channel(s)        : 6 channels
    Frame rate        : 31.250 FPS (1536 SPF)
    Stream size        : 266 MiB (1%)
    Language         : English
    Audio #4
    Format         : E-AC-3
    Duration         : 1 h 22 min
    Channel(s)        : 6 channels
    Frame rate        : 31.250 FPS (1536 SPF)
    Stream size        : 379 MiB (2%)
    Language         : English
    Audio #5
    Format         : AC-3
    Format/Info        : Audio Coding 3
    Duration         : 1 h 22 min
    Channel(s)        : 6 channels
    Frame rate        : 31.250 FPS (1536 SPF)
    Stream size        : 266 MiB (1%)
    Language         : English
    Audio #6
    Format         : AC-3
    Format/Info        : Audio Coding 3
    Duration         : 1 h 22 min
    Channel(s)        : 2 channels
    Frame rate        : 31.250 FPS (1536 SPF)
    Stream size        : 114 MiB (0%)
    Language         : English
    Text #1
    Format         : PGS
    Duration         : 1 h 17 min
    Frame rate        : 0.738 FPS
    Stream size        : 30.8 MiB (0%)
    Language         : English
    Text #2
    Format         : UTF-8
    Duration         : 1 h 16 min
    Frame rate        : 0.249 FPS
    Stream size        : 30.0 KiB (0%)
    Language         : Turkish
    Text #3
    Format         : UTF-8
    Duration         : 1 h 17 min
    Frame rate        : 0.369 FPS
    Stream size        : 43.8 KiB (0%)
    Language         : English
    [Ziyaretçiler üye olmadan, üyelerimiz ise konuya mesaj yazmadan linkleri görüntüleyemezler.Ziyaretçiler üye olmadan, üyelerimiz ise konuya mesaj yazmadan linkleri görüntüleyemezler.]
    SuperUp

    turbobit.net, gofile.io, doodrive.com, megaup.net, send.cm, 1fichier.com, mixdrop.ag, pixeldrain.com, streamtape.com, rapidgator.net
    KURBAN BAYRAMI BOYUNCA GÜNLÜK ÜCRETSİZ LİNK SAYISI 10'A ÇIKARILMIŞTIR
    İYİ BAYRAMLAR


    TÜM LİNKLERE SINIRSIZCA ERİŞEBİLMEK İÇİN VIP YA DA SUPER VIP ÜYELİK SATIN ALMANIZ GEREKMEKTEDİR

    İNİYOR VIP ÜYELİK DETAYLARI İÇİN TIKLAYIN

    HER TÜRLÜ SORU VEYA SORUNUNUZDA BANA ÖZEL MESAJ GÖNDEREBİLİRSİNİZ

    İNİYOR.NET İLE İLGİLİ TÜM AÇIKLAMALAR İÇİN BURAYA TIKLAYIN

  2. Aşağıdaki 2 kullanıcımız bu mesaj için SuperUp teşekkür ediyor

    devriksekiz (1 hafta önce), FilmRip ( 5 Gün önce)

  3. #2
    Filmrip Üye povi - ait Kullanıcı Resmi (Avatar)
    Üyelik tarihi
    07 Haziran 2024
    Yaş
    26
    Mesajlar
    59
    Konular
    0
    Teşekkürleri
    16
    Tecrübe Puanı
    2

    Standart

    sağolun .......

  4. Aşağıdaki kullanıcı bu mesajdan dolayı povi teşekkür ediyor

    FilmRip ( 5 Gün önce)

  5. #3
    Forum Sahibi FilmRip - ait Kullanıcı Resmi (Avatar)
    Üyelik tarihi
    24 Ocak 2021
    Nereden
    TR Ankara
    Yaş
    59
    Mesajlar
    43,006
    Konular
    36935
    Teşekkürleri
    437470
    Tecrübe Puanı
    10

    Standart

    teşekkür ederim kardeşim

Konu Bilgileri

Bu Konuya Gözatan Kullanıcılar

Şu anda 1 kullanıcı bu konuyu görüntülüyor. (0 kayıtlı ve 1 misafir)

Benzer Konular

  1. Ördeklerin Göçü - Migration (2023) 1080p BluRay x264 DUAL - TURG
    Konu Sahibi SuperUp Forum 1080p & m1080p Animasyonlar
    Cevap: 2
    Son Mesaj : 1 hafta önce, 09:58
  2. Ördeklerin Göçü - Migration (2023) 2160p WEB-DL H265 HDR DUAL - TURG
    Konu Sahibi SuperUp Forum 4K & 2160p Animasyonlar
    Cevap: 2
    Son Mesaj : 1 hafta önce, 09:57
  3. Ördeklerin Göçü - Migration (2023) 1080p WEB-DL H264 DUAL - TURG
    Konu Sahibi SuperUp Forum 1080p & m1080p Animasyonlar
    Cevap: 0
    Son Mesaj : 1 hafta önce, 22:11
  4. Nine (2009) 1080p BluRay REMUX DUAL - TURG
    Konu Sahibi SuperUp Forum REMUX Türkçe Dublaj
    Cevap: 0
    Son Mesaj : 2 Hafta önce, 05:44
  5. Starman (1984) 1080p BluRay REMUX DUAL - TURG
    Konu Sahibi SuperUp Forum REMUX Türkçe Dublaj
    Cevap: 0
    Son Mesaj : 09.Mayıs.2024, 16:34

Thread Participants: 2

Bookmarks

Yetkileriniz

  • Konu Acma Yetkiniz Yok
  • Cevap Yazma Yetkiniz Yok
  • Eklenti Yükleme Yetkiniz Yok
  • Mesajınızı Değiştirme Yetkiniz Yok
  •  
1 2 3 4 5 6 7 8 9 10 11 12 13 14 15 16 17 18 19 20 21 22 23 24 25 26 27 28 29 30 31 32 33 34 35 36 37 38 39 40 41 42 43 44 45 46 47 48 49 50 51 52 53 54 55 56 57 58 59 60 61 62 63 64 65 66 67 68 69 70 71 72 73 74 75 76 77 78 79 80 81 82 83 84 85 86 87 88 89 90 91 92 93 94 95 96 97 98 99 100 101 102 103 104 105 106 107 108 109 110 111 112 113 114 115 116 117 118 119 120 121 122 123 124 125 126 127 128 129 130 131 132 133 134 135 136 137 138 139 140 141 142 143 144 145 146 147 148 149 150 151 152 153 154 155 156 157 158 159 160 161 162 163 164 165 166 167 168 169 170 171 172 173 174 175 176 177 178 179 180 181 182 183 184 185 186 187 188 189 190 191 192 193 194 195 196 197 198 199 200 201 202 203 204 205 206 207 208 209 210 211 212 213