Toplam 2 adet sonuctan sayfa basi 1 ile 2 arasi kadar sonuc gösteriliyor

Konu: Let the Canary Sing (2023) 1080p H264

  1. #1
    Super Moderator SuperUp - ait Kullanıcı Resmi (Avatar)
    Üyelik tarihi
    14 Nisan 2024
    Mesajlar
    5,455
    Konular
    5148
    Teşekkürleri
    3014
    Blog Entries
    1297
    Tecrübe Puanı
    302

    Standart Let the Canary Sing (2023) 1080p H264

    Let the Canary Sing (2023) 1080p H264

    [Ziyaretçiler üye olmadan, üyelerimiz ise konuya mesaj yazmadan linkleri görüntüleyemezler.Ziyaretçiler üye olmadan, üyelerimiz ise konuya mesaj yazmadan linkleri görüntüleyemezler.]
    Tür: Belgesel, Müzik

    Michael John Warren'ın yönettiği Let The Canary Sing belgeseli, müzik ikonu Cyndi Lauper'ın büyüleyici hayatını ve kariyerini inceliyor. Film, Cyndi Lauper'ın yıldızlığa yükselişinin izini sürüyor ve müzik, moda ve sosyal hareketler üzerindeki kalıcı etkisini vurguluyor.

    Oyuncular: Cyndi Lauper,

    [Ziyaretçiler üye olmadan, üyelerimiz ise konuya mesaj yazmadan linkleri görüntüleyemezler.Ziyaretçiler üye olmadan, üyelerimiz ise konuya mesaj yazmadan linkleri görüntüleyemezler.]
    FİLMDEN KARELER

    Kod:
    General
    Format         : Matroska
    File size        : 5.34 GiB
    Duration         : 1 h 38 min
    Overall bit rate       : 7 754 kb/s
    Frame rate        : 23.976 FPS
    Video
    Format         : AVC
    Format/Info        : Advanced Video Codec
    Duration         : 1 h 38 min
    Width         : 1 920 pixels
    Height         : 1 080 pixels
    Frame rate        : 23.976 (24000/1001) FPS
    Stream size        : 4.79 GiB (90%)
    Audio
    Format         : E-AC-3
    Duration         : 1 h 38 min
    Channel(s)        : 6 channels
    Frame rate        : 31.250 FPS (1536 SPF)
    Stream size        : 451 MiB (8%)
    Language         : English
    Format         : UTF-8
    Language         : English
    [Ziyaretçiler üye olmadan, üyelerimiz ise konuya mesaj yazmadan linkleri görüntüleyemezler.Ziyaretçiler üye olmadan, üyelerimiz ise konuya mesaj yazmadan linkleri görüntüleyemezler.]
    [Ziyaretçiler üye olmadan, üyelerimiz ise konuya mesaj yazmadan linkleri görüntüleyemezler.Ziyaretçiler üye olmadan, üyelerimiz ise konuya mesaj yazmadan linkleri görüntüleyemezler.]
    SuperUp

    turbobit.net, gofile.io, doodrive.com, megaup.net, send.cm, 1fichier.com, mixdrop.ag, pixeldrain.com, streamtape.com, rapidgator.net
    KURBAN BAYRAMI BOYUNCA GÜNLÜK ÜCRETSİZ LİNK SAYISI 10'A ÇIKARILMIŞTIR
    İYİ BAYRAMLAR


    TÜM LİNKLERE SINIRSIZCA ERİŞEBİLMEK İÇİN VIP YA DA SUPER VIP ÜYELİK SATIN ALMANIZ GEREKMEKTEDİR

    İNİYOR VIP ÜYELİK DETAYLARI İÇİN TIKLAYIN

    HER TÜRLÜ SORU VEYA SORUNUNUZDA BANA ÖZEL MESAJ GÖNDEREBİLİRSİNİZ

    İNİYOR.NET İLE İLGİLİ TÜM AÇIKLAMALAR İÇİN BURAYA TIKLAYIN

  2. Aşağıdaki kullanıcı bu mesajdan dolayı SuperUp teşekkür ediyor

    FilmRip ( 5 Gün önce)

  3. #2
    Forum Sahibi FilmRip - ait Kullanıcı Resmi (Avatar)
    Üyelik tarihi
    24 Ocak 2021
    Nereden
    TR Ankara
    Yaş
    59
    Mesajlar
    43,006
    Konular
    36935
    Teşekkürleri
    437470
    Tecrübe Puanı
    10

    Standart

    teşekkür ederim kardeşim

Konu Bilgileri

Bu Konuya Gözatan Kullanıcılar

Şu anda 1 kullanıcı bu konuyu görüntülüyor. (0 kayıtlı ve 1 misafir)

Benzer Konular

  1. Pinkfong Sing-Along Movie 3 Catch The Gingerbread Man 2023 1080p WEB-DL H264-AOC
    Konu Sahibi nItRo Forum 720p 1080p Bluray Orjinal Dildeki Filmler
    Cevap: 0
    Son Mesaj : 20.Kasım.2023, 11:06
  2. Songs to Sing in Your Car (2023)
    Konu Sahibi AD-TEAM Forum Yabancı Albüm İndirme Bölümü
    Cevap: 0
    Son Mesaj : 03.Nisan.2023, 18:40
  3. Sing Along Classics (2023)
    Konu Sahibi AD-TEAM Forum Yabancı Albüm İndirme Bölümü
    Cevap: 0
    Son Mesaj : 21.Şubat.2023, 18:26
  4. Sing 2 (2021) 1080p TOD WEB-DL AAC2.0 H264 DUAL
    Konu Sahibi FilmRip Forum BluRay Dual TR-EN Filmler
    Cevap: 0
    Son Mesaj : 10.Şubat.2023, 07:29
  5. Sing 2 (2021) 1080p TOD WEB-DL AAC2.0 H264 DUAL
    Konu Sahibi FilmRip Forum Animasyon Filmler
    Cevap: 0
    Son Mesaj : 10.Şubat.2023, 07:29

Thread Participants: 1

Bookmarks

Yetkileriniz

  • Konu Acma Yetkiniz Yok
  • Cevap Yazma Yetkiniz Yok
  • Eklenti Yükleme Yetkiniz Yok
  • Mesajınızı Değiştirme Yetkiniz Yok
  •  
1 2 3 4 5 6 7 8 9 10 11 12 13 14 15 16 17 18 19 20 21 22 23 24 25 26 27 28 29 30 31 32 33 34 35 36 37 38 39 40 41 42 43 44 45 46 47 48 49 50 51 52 53 54 55 56 57 58 59 60 61 62 63 64 65 66 67 68 69 70 71 72 73 74 75 76 77 78 79 80 81 82 83 84 85 86 87 88 89 90 91 92 93 94 95 96 97 98 99 100 101 102 103 104 105 106 107 108 109 110 111 112 113 114 115 116 117 118 119 120 121 122 123 124 125 126 127 128 129 130 131 132 133 134 135 136 137 138 139 140 141 142 143 144 145 146 147 148 149 150 151 152 153 154 155 156 157 158 159 160 161 162 163 164 165 166 167 168 169 170 171 172 173 174 175 176 177 178 179 180 181 182 183 184 185 186 187 188 189 190 191 192 193 194 195 196 197 198 199 200 201 202 203 204 205 206 207 208 209 210 211 212 213