Toplam 2 adet sonuctan sayfa basi 1 ile 2 arasi kadar sonuc gösteriliyor

Konu: Godzilla ve Kong: Yeni İmparatorluk - Godzilla x Kong: The New Empire (2024) 2160p UHD BluRay x265

  1. #1
    Super Moderator SuperUp - ait Kullanıcı Resmi (Avatar)
    Üyelik tarihi
    14 Nisan 2024
    Mesajlar
    5,134
    Konular
    4857
    Teşekkürleri
    2854
    Blog Entries
    998
    Tecrübe Puanı
    286

    Standart Godzilla ve Kong: Yeni İmparatorluk - Godzilla x Kong: The New Empire (2024) 2160p UHD BluRay x265

    Godzilla ve Kong: Yeni İmparatorluk - Godzilla x Kong: The New Empire (2024) 2160p UHD BluRay x265

    [Ziyaretçiler üye olmadan, üyelerimiz ise konuya mesaj yazmadan linkleri görüntüleyemezler.Ziyaretçiler üye olmadan, üyelerimiz ise konuya mesaj yazmadan linkleri görüntüleyemezler.]
    Tür: Bilim-Kurgu, Aksiyon, Macera

    Kudretli Kong ve korkunç Godzilla, insan dünyasında gizlenen, hem kendi türlerinin hem de insanlığın varoluşunu tehdit eden devasa ölümcül bir tehdide karşı birlikte savaşmak zorundadır.

    Oyuncular: Rebecca Hall, Brian Tyree Henry, Dan Stevens, Kaylee Hottle, Alex Ferns, Fala Chen, Rachel House, Ron Smyck, Chantelle Jamieson, Greg Hatton

    [Ziyaretçiler üye olmadan, üyelerimiz ise konuya mesaj yazmadan linkleri görüntüleyemezler.Ziyaretçiler üye olmadan, üyelerimiz ise konuya mesaj yazmadan linkleri görüntüleyemezler.]
    FİLMDEN KARELER

    Kod:
    General
    Format         : Matroska
    File size        : 29.9 GiB
    Duration         : 1 h 54 min
    Overall bit rate mode     : Variable
    Overall bit rate       : 37.3 Mb/s
    Frame rate        : 23.976 FPS
    Video
    Format         : HEVC
    Format/Info        : High Efficiency Video Coding
    Duration         : 1 h 54 min
    Width         : 3 840 pixels
    Height         : 1 608 pixels
    Frame rate        : 23.976 (24000/1001) FPS
    Stream size        : 26.9 GiB (90%)
    Audio #1
    Format         : MLP FBA 16-ch
    Duration         : 1 h 54 min
    Channel(s)        : 8 channels
    Frame rate        : 1 200.000 FPS (40 SPF)
    Stream size        : 2.43 GiB (8%)
    Language         : English
    Audio #2
    Format         : AC-3
    Format/Info        : Audio Coding 3
    Duration         : 1 h 54 min
    Channel(s)        : 6 channels
    Frame rate        : 31.250 FPS (1536 SPF)
    Stream size        : 367 MiB (1%)
    Language         : English
    Audio #3
    Format         : AAC LC
    Format/Info        : Advanced Audio Codec Low Complexity
    Duration         : 1 h 54 min
    Channel(s)        : 2 channels
    Frame rate        : 46.875 FPS (1024 SPF)
    Stream size        : 89.5 MiB (0%)
    Language         : English
    Text #1
    Format         : PGS
    Duration         : 1 h 54 min
    Frame rate        : 0.418 FPS
    Stream size        : 25.5 MiB (0%)
    Language         : English
    Text #2
    Format         : PGS
    Duration         : 1 h 53 min
    Frame rate        : 0.241 FPS
    Stream size        : 13.4 MiB (0%)
    Language         : French
    Text #3
    Format         : PGS
    Duration         : 1 h 53 min
    Frame rate        : 0.228 FPS
    Stream size        : 16.3 MiB (0%)
    Language         : Spanish
    Text #4
    Format         : PGS
    Duration         : 1 h 43 min
    Frame rate        : 0.024 FPS
    Stream size        : 1.34 MiB (0%)
    Language         : French
    Text #5
    Format         : PGS
    Duration         : 1 h 43 min
    Frame rate        : 0.028 FPS
    Stream size        : 1.50 MiB (0%)
    Language         : Spanish
    [Ziyaretçiler üye olmadan, üyelerimiz ise konuya mesaj yazmadan linkleri görüntüleyemezler.Ziyaretçiler üye olmadan, üyelerimiz ise konuya mesaj yazmadan linkleri görüntüleyemezler.]
    [Ziyaretçiler üye olmadan, üyelerimiz ise konuya mesaj yazmadan linkleri görüntüleyemezler.Ziyaretçiler üye olmadan, üyelerimiz ise konuya mesaj yazmadan linkleri görüntüleyemezler.]
    SuperUp

    turbobit.net, gofile.io, doodrive.com, megaup.net, send.cm, 1fichier.com, mixdrop.ag, pixeldrain.com, streamtape.com, rapidgator.net

  2. Aşağıdaki kullanıcı bu mesajdan dolayı SuperUp teşekkür ediyor

    FilmRip ( 2 Gün önce)

  3. #2
    Forum Sahibi FilmRip - ait Kullanıcı Resmi (Avatar)
    Üyelik tarihi
    24 Ocak 2021
    Nereden
    TR Ankara
    Yaş
    59
    Mesajlar
    42,585
    Konular
    36844
    Teşekkürleri
    437376
    Tecrübe Puanı
    10

    Standart

    teşekkür ederim kardeşim

Konu Bilgileri

Bu Konuya Gözatan Kullanıcılar

Şu anda 1 kullanıcı bu konuyu görüntülüyor. (0 kayıtlı ve 1 misafir)

Benzer Konular

  1. Cevap: 0
    Son Mesaj : 3 Gün önce, 07:18
  2. Cevap: 0
    Son Mesaj : 3 Gün önce, 07:16
  3. Godzilla ve Kong: Yeni İmparatorluk 2024 1080p EN İndir
    Konu Sahibi FilmRip Forum BluRay Dual TR-EN Filmler
    Cevap: 7
    Son Mesaj : 1 hafta önce, 21:22
  4. Cevap: 1
    Son Mesaj : 3 Hafta önce, 12:05
  5. Cevap: 2
    Son Mesaj : 4 Hafta önce, 06:05

Thread Participants: 1

Bookmarks

Yetkileriniz

  • Konu Acma Yetkiniz Yok
  • Cevap Yazma Yetkiniz Yok
  • Eklenti Yükleme Yetkiniz Yok
  • Mesajınızı Değiştirme Yetkiniz Yok
  •  
1 2 3 4 5 6 7 8 9 10 11 12 13 14 15 16 17 18 19 20 21 22 23 24 25 26 27 28 29 30 31 32 33 34 35 36 37 38 39 40 41 42 43 44 45 46 47 48 49 50 51 52 53 54 55 56 57 58 59 60 61 62 63 64 65 66 67 68 69 70 71 72 73 74 75 76 77 78 79 80 81 82 83 84 85 86 87 88 89 90 91 92 93 94 95 96 97 98 99 100 101 102 103 104 105 106 107 108 109 110 111 112 113 114 115 116 117 118 119 120 121 122 123 124 125 126 127 128 129 130 131 132 133 134 135 136 137 138 139 140 141 142 143 144 145 146 147 148 149 150 151 152 153 154 155 156 157 158 159 160 161 162 163 164 165 166 167 168 169 170 171 172 173 174 175 176 177 178 179 180 181 182 183 184 185 186 187 188 189 190 191 192 193 194 195 196 197 198 199 200 201 202 203 204 205 206 207 208 209 210 211 212