Yılanların Öcü (1985) Sansürsüz 1080p WEB-DL MUBI H264 - HdT

[Ziyaretçiler üye olmadan, üyelerimiz ise konuya mesaj yazmadan linkleri görüntüleyemezler.Ziyaretçiler üye olmadan, üyelerimiz ise konuya mesaj yazmadan linkleri görüntüleyemezler.]
Tür: Dram

Fakir Baykurt'un aynı adlı romanından uyarlanmış televizyon dizisi. Koliba Film yapımıdır. Senaryosunu Ali Esen Bilen, Bekir Baran Sıtkı, Rana Mamatlıoğlu'nun kaleme aldığı dizinin yapımcılığını Ata Türkoğlu, yönetmenliğini ise Cemal Şan üstlenmiştir.

Oyuncular: Kadir İnanır, Fatma Girik, Serpil Çakmaklı, Nur Sürer, Erdal Özyağcılar, Savaş Yurttaş, İhsan Yüce, Ahmet Evintan, Avni Yalçın,

[Ziyaretçiler üye olmadan, üyelerimiz ise konuya mesaj yazmadan linkleri görüntüleyemezler.Ziyaretçiler üye olmadan, üyelerimiz ise konuya mesaj yazmadan linkleri görüntüleyemezler.]
FİLMDEN KARELER

Kod:
General
Format         : Matroska
File size        : 4.00 GiB
Duration         : 1 h 44 min
Overall bit rate       : 5 487 kb/s
Frame rate        : 25.000 FPS
Video
Format         : AVC
Format/Info        : Advanced Video Codec
Duration         : 1 h 44 min
Width         : 1 920 pixels
Height         : 1 080 pixels
Frame rate        : 25.000 FPS
Stream size        : 3.86 GiB (96%)
Audio
Format         : AAC LC
Format/Info        : Advanced Audio Codec Low Complexity
Duration         : 1 h 44 min
Channel(s)        : 2 channels
Frame rate        : 46.875 FPS (1024 SPF)
Stream size        : 149 MiB (4%)
Language         : Turkish
[Ziyaretçiler üye olmadan, üyelerimiz ise konuya mesaj yazmadan linkleri görüntüleyemezler.Ziyaretçiler üye olmadan, üyelerimiz ise konuya mesaj yazmadan linkleri görüntüleyemezler.]
SuperUp

turbobit.net, gofile.io, doodrive.com, megaup.net, send.cm, 1fichier.com, mixdrop.ag, pixeldrain.com, streamtape.com, rapidgator.net