Toplam 3 adet sonuctan sayfa basi 1 ile 3 arasi kadar sonuc gösteriliyor

Konu: Geride Kalanlar - The Holdovers (2023) 1080p DUAL BluRay REMUX AVC DTS-HD MA 5.1 - HdT

  1. #1
    Super Moderator SuperUp - ait Kullanıcı Resmi (Avatar)
    Üyelik tarihi
    14 Nisan 2024
    Mesajlar
    6,253
    Konular
    5900
    Teşekkürleri
    3780
    Blog Entries
    2064
    Tecrübe Puanı
    379

    Standart Geride Kalanlar - The Holdovers (2023) 1080p DUAL BluRay REMUX AVC DTS-HD MA 5.1 - HdT

    Geride Kalanlar - The Holdovers (2023) 1080p DUAL BluRay REMUX AVC DTS-HD MA 5.1 - HdT

    [Ziyaretçiler üye olmadan, üyelerimiz ise konuya mesaj yazmadan linkleri görüntüleyemezler.Ziyaretçiler üye olmadan, üyelerimiz ise konuya mesaj yazmadan linkleri görüntüleyemezler.]
    Tür: Komedi, Dram

    New England'daki bir hazırlık okulunda çalışan, kimsenin sevmediği huysuz bir öğretmen, gidecek yeri olmayan birkaç öğrenciye nezaret etmek için Noel tatili boyunca okulda kalmak zorunda kalır. Birkaç gün sonra okulda kalan tek öğrenci, -15 yaşındaki zeki ve baş belası Angus- ve oğlunu Vietnam'da yeni kaybetmiş olan okulun şef aşçısı Mary ile beklenmedik bir bağ kurar.

    Oyuncular: Paul Giamatti, Dominic Sessa, Da'Vine Joy Randolph, Carrie Preston, Brady Hepner, Ian Dolley, Jim Kaplan, Michael Provost, Andrew Garman, Naheem Garcia

    [Ziyaretçiler üye olmadan, üyelerimiz ise konuya mesaj yazmadan linkleri görüntüleyemezler.Ziyaretçiler üye olmadan, üyelerimiz ise konuya mesaj yazmadan linkleri görüntüleyemezler.]
    FİLMDEN KARELER

    Kod:
    General
    Format         : Matroska
    File size        : 34.9 GiB
    Duration         : 2 h 13 min
    Overall bit rate mode     : Variable
    Overall bit rate       : 37.5 Mb/s
    Frame rate        : 23.976 FPS
    Video
    Format         : AVC
    Format/Info        : Advanced Video Codec
    Duration         : 2 h 13 min
    Width         : 1 920 pixels
    Height         : 1 080 pixels
    Frame rate        : 23.976 (24000/1001) FPS
    Stream size        : 32.9 GiB (94%)
    Language         : English
    Audio #1
    Format         : AC-3
    Format/Info        : Audio Coding 3
    Duration         : 2 h 13 min
    Channel(s)        : 2 channels
    Frame rate        : 31.250 FPS (1536 SPF)
    Stream size        : 183 MiB (0%)
    Language         : Turkish
    Audio #2
    Format         : DTS XLL
    Commercial name       : DTS-HD Master Audio
    Duration         : 2 h 13 min
    Channel(s)        : 6 channels
    Frame rate        : 93.750 FPS (512 SPF)
    Stream size        : 1.89 GiB (5%)
    Language         : English
    Text #1
    Format         : UTF-8
    Duration         : 2 h 10 min
    Frame rate        : 0.287 FPS
    Stream size        : 65.9 KiB (0%)
    Language         : English
    Text #2
    Format         : UTF-8
    Duration         : 2 h 12 min
    Frame rate        : 0.313 FPS
    Stream size        : 73.3 KiB (0%)
    Language         : English
    Text #3
    Format         : UTF-8
    Duration         : 2 h 7 min
    Frame rate        : 0.218 FPS
    Stream size        : 64.7 KiB (0%)
    Language         : Turkish
    Text #4
    Format         : UTF-8
    Duration         : 2 h 9 min
    Frame rate        : 0.023 FPS
    Stream size        : 5.26 KiB (0%)
    Language         : Turkish
    [Ziyaretçiler üye olmadan, üyelerimiz ise konuya mesaj yazmadan linkleri görüntüleyemezler.Ziyaretçiler üye olmadan, üyelerimiz ise konuya mesaj yazmadan linkleri görüntüleyemezler.]
    SuperUp

    turbobit.net, gofile.io, doodrive.com, megaup.net, send.cm, 1fichier.com, mixdrop.ag, pixeldrain.com, streamtape.com, rapidgator.net

  2. Aşağıdaki 2 kullanıcımız bu mesaj için SuperUp teşekkür ediyor

    FilmRip (1 hafta önce), itom (1 hafta önce)

  3. #2
    Forum Sahibi FilmRip - ait Kullanıcı Resmi (Avatar)
    Üyelik tarihi
    24 Ocak 2021
    Nereden
    TR Ankara
    Yaş
    59
    Mesajlar
    43,710
    Konular
    36950
    Teşekkürleri
    437721
    Tecrübe Puanı
    10

    Standart

    teşekkür ederim kardeşim

  4. #3
    Filmrip Üye itom - ait Kullanıcı Resmi (Avatar)
    Üyelik tarihi
    07 Şubat 2023
    Mesajlar
    9,576
    Konular
    0
    Teşekkürleri
    1225
    Tecrübe Puanı
    124

    Standart

    Teşekkürler

Konu Bilgileri

Bu Konuya Gözatan Kullanıcılar

Şu anda 1 kullanıcı bu konuyu görüntülüyor. (0 kayıtlı ve 1 misafir)

Thread Participants: 2

Bookmarks

Yetkileriniz

  • Konu Acma Yetkiniz Yok
  • Cevap Yazma Yetkiniz Yok
  • Eklenti Yükleme Yetkiniz Yok
  • Mesajınızı Değiştirme Yetkiniz Yok
  •  
1 2 3 4 5 6 7 8 9 10 11 12 13 14 15 16 17 18 19 20 21 22 23 24 25 26 27 28 29 30 31 32 33 34 35 36 37 38 39 40 41 42 43 44 45 46 47 48 49 50 51 52 53 54 55 56 57 58 59 60 61 62 63 64 65 66 67 68 69 70 71 72 73 74 75 76 77 78 79 80 81 82 83 84 85 86 87 88 89 90 91 92 93 94 95 96 97 98 99 100 101 102 103 104 105 106 107 108 109 110 111 112 113 114 115 116 117 118 119 120 121 122 123 124 125 126 127 128 129 130 131 132 133 134 135 136 137 138 139 140 141 142 143 144 145 146 147 148 149 150 151 152 153 154 155 156 157 158 159 160 161 162 163 164 165 166 167 168 169 170 171 172 173 174 175 176 177 178 179 180 181 182 183 184 185 186 187 188 189 190 191 192 193 194 195 196 197 198 199 200 201 202 203 204 205 206 207 208 209 210