Bifo & CMYLMZ (2011) 1080i BluRay REMUX AVC DTS-HD MA 5.1

[Ziyaretçiler üye olmadan, üyelerimiz ise konuya mesaj yazmadan linkleri görüntüleyemezler.Ziyaretçiler üye olmadan, üyelerimiz ise konuya mesaj yazmadan linkleri görüntüleyemezler.]
Tür: Müzik, Komedi

Cem Yılmaz Orkestra Şefi Performansı Sırasında Yaptığı Esprilerle Salondakileri Kahkahaya Boğuyor. 10 Mart 2011 tarihinde Borusan Kültür ve Sanat Vakfı'nın katkıları ile BİFO'yu (Borusan İstanbul Filarmoni Orkestrası) konuk şef olarak ikinci kez yöneten ve izleyenlere unutulmaz bir gece yaşatan Cem Yılmaz ile BİFO'nun eğlenceli klasik müzik konseri şimdi DVD'de.

Oyuncular: Cem Yılmaz, Murat Dündar,

FİLMDEN KARELER

Kod:
General
Format         : Matroska
File size        : 22.4 GiB
Duration         : 2 h 3 min
Overall bit rate mode     : Variable
Overall bit rate       : 26.0 Mb/s
Frame rate        : 50.000 FPS
Video
Format         : AVC
Format/Info        : Advanced Video Codec
Duration         : 2 h 3 min
Width         : 1 920 pixels
Height         : 1 080 pixels
Frame rate        : 50.000 FPS
Stream size        : 20.2 GiB (90%)
Audio
Format         : DTS XLL
Commercial name       : DTS-HD Master Audio
Duration         : 2 h 3 min
Channel(s)        : 6 channels
Frame rate        : 93.750 FPS (512 SPF)
Stream size        : 2.12 GiB (9%)
Language         : Türkçe
[Ziyaretçiler üye olmadan, üyelerimiz ise konuya mesaj yazmadan linkleri görüntüleyemezler.Ziyaretçiler üye olmadan, üyelerimiz ise konuya mesaj yazmadan linkleri görüntüleyemezler.]
SuperUp

turbobit.net, gofile.io, doodrive.com, megaup.net, send.cm, 1fichier.com, mixdrop.ag, pixeldrain.com, streamtape.com, rapidgator.net