Toplam 3 adet sonuctan sayfa basi 1 ile 3 arasi kadar sonuc gösteriliyor

Konu: Tehlikeli Kokteyl - Tequila Sunrise (1988) m1080p DUAL BluRay x264

  1. #1
    Super Moderator SuperUp - ait Kullanıcı Resmi (Avatar)
    Üyelik tarihi
    14 Nisan 2024
    Mesajlar
    8,827
    Konular
    8299
    Teşekkürleri
    5856
    Blog Entries
    7850
    Tecrübe Puanı
    586

    Tehlikeli Kokteyl - Tequila Sunrise (1988) m1080p DUAL BluRay x264

    Tehlikeli Kokteyl - Tequila Sunrise (1988) m1080p DUAL BluRay x264

    [Ziyaretçiler üye olmadan, üyelerimiz ise konuya mesaj yazmadan linkleri görüntüleyemezler.Ziyaretçiler üye olmadan, üyelerimiz ise konuya mesaj yazmadan linkleri görüntüleyemezler.]
    Tür: Gerilim, Suç, Romantik

    Uyuşturucu satıcısı olan Mac McKussic (Mel Gibson), artık temize çıkmak istiyor. Eski bir yakın arkadaşı olan Nick Frescia (Kurt Russell) ise polis olmuştur ve Mac'i adalete teslim etmek istiyor. Mac, bir restoran sahibi olan Jo Ann (Michelle Pfeiffer)'e ilgi duymaktadır. Jo Ann'e yakınlaşıp, Mac hakkında bilgi almak isteyen Frescia, Jo Ann'e aşık oluyor. İki arkadaşın aynı kadını sevmesiyle arkadaşlıkları da tehlikeye giriyor...

    Oyuncular: Mel Gibson, Michelle Pfeiffer, Kurt Russell, Raul Julia, J.T. Walsh, Arliss Howard, Arye Gross, Gabriel Damon, Daniel Zacapa, Tom Nolan

    [Ziyaretçiler üye olmadan, üyelerimiz ise konuya mesaj yazmadan linkleri görüntüleyemezler.Ziyaretçiler üye olmadan, üyelerimiz ise konuya mesaj yazmadan linkleri görüntüleyemezler.]
    FİLMDEN KARELER

    Kod:
    General
    Format         : Matroska
    File size        : 2.00 GiB
    Duration         : 1 h 55 min
    Overall bit rate       : 2 486 kb/s
    Frame rate        : 23.976 FPS
    Video
    Format         : AVC
    Format/Info        : Advanced Video Codec
    Duration         : 1 h 55 min
    Width         : 1 920 pixels
    Height         : 1 080 pixels
    Frame rate        : 23.976 (24000/1001) FPS
    Stream size        : 1.76 GiB (88%)
    Ses 1
    Format         : AC-3
    Format/Info        : Audio Coding 3
    Duration         : 1 h 55 min
    Channel(s)        : 2 channels
    Frame rate        : 31.250 FPS (1536 SPF)
    Stream size        : 158 MiB (8%)
    Language         : Türkçe
    Ses 2
    Format         : AAC LC
    Format/Info        : Advanced Audio Codec Low Complexity
    Duration         : 1 h 55 min
    Channel(s)        : 2 channels
    Frame rate        : 46.875 FPS (1024 SPF)
    Stream size        : 77.3 MiB (4%)
    Language         : English
    Altyazı  #1
    Format         : UTF-8
    Codec ID/Info       : UTF-8 Plain Altyazı 
    Duration         : 1 h 50 min
    Frame rate        : 0.193 FPS
    Stream size        : 40.8 KiB (0%)
    Language         : Türkçe
    Altyazı  #2
    Format         : PGS
    Duration         : 1 h 50 min
    Frame rate        : 0.386 FPS
    Stream size        : 17.0 MiB (1%)
    Language         : Türkçe
    [Ziyaretçiler üye olmadan, üyelerimiz ise konuya mesaj yazmadan linkleri görüntüleyemezler.Ziyaretçiler üye olmadan, üyelerimiz ise konuya mesaj yazmadan linkleri görüntüleyemezler.]
    Kod:
    https://iniyor.net/tb/2c884c28e6b4bd3867fea70a873077c2/Tequila.Sunrise.1998.1080p.BluRay.x264.TR.ENG.mkv.html
    SuperUp

    turbobit.net, gofile.io, doodrive.com, megaup.net, send.cm, 1fichier.com, mixdrop.ag, pixeldrain.com, streamtape.com, rapidgator.net
    İNİYOR.NET ÜCRETSİZ DOSYA İNDİRME LİMİTİ:
    GÜNLÜK 1 ADET VE MAX. 10 GB'DIR

    SİTEMİZE DESTEK OLMAK,
    TÜM LİNKLERE REKLAMSIZ VE SINIRSIZCA ERİŞEBİLMEK İÇİN
    VIP YA DA SUPER VIP ÜYELİK SATIN ALMANIZ GEREKLİDİR


    İNİYOR VIP ÜYELİK DETAYLARI İÇİN TIKLAYIN

    Her Ruh Haline Uygun Filmler İNİYOR VIP'te

    10 BİNLERCE İÇERİĞİ İNDİRMEDEN İZLEYİN

    Tüm Oyuncuların BoxSet'leri İNİYOR VIP'te - Üstelik Sürekli Güncel

    İNİYOR.NET İLE İLGİLİ TÜM AÇIKLAMALAR İÇİN BURAYA TIKLAYIN

  2. Aşağıdaki kullanıcı bu mesajdan dolayı SuperUp teşekkür ediyor

    missy_master ( 5 Gün önce)

  3. #2
    Filmrip Üye ardizl5665 - ait Kullanıcı Resmi (Avatar)
    Üyelik tarihi
    10 Şubat 2023
    Mesajlar
    453
    Konular
    0
    Teşekkürleri
    407
    Tecrübe Puanı
    42

    Standart

    Admin Sağol

  4. #3
    Filmrip Üye missy_master - ait Kullanıcı Resmi (Avatar)
    Üyelik tarihi
    05 Temmuz 2024
    Mesajlar
    53
    Konular
    0
    Teşekkürleri
    21
    Tecrübe Puanı
    3

    Standart

    teşekkürler

Konu Bilgileri

Bu Konuya Gözatan Kullanıcılar

Şu anda 1 kullanıcı bu konuyu görüntülüyor. (0 kayıtlı ve 1 misafir)

Benzer Konular

  1. Willow (1988) m1080p DUAL BluRay x264
    Konu Sahibi SuperUp Forum m1080p Türkçe Dublaj
    Cevap: 1
    Son Mesaj : 3 Hafta önce, 08:23
  2. Zor Ölüm - Die Hard (1988) m1080p DUAL BluRay x264
    Konu Sahibi SuperUp Forum m1080p Türkçe Dublaj
    Cevap: 1
    Son Mesaj : 3 Hafta önce, 08:16
  3. Kan Sporu - Bloodsport (1988) m1080p DUAL BluRay x264
    Konu Sahibi SuperUp Forum m1080p Türkçe Dublaj
    Cevap: 0
    Son Mesaj : 4 Hafta önce, 10:38
  4. Gün Doğmadan - Before Sunrise (1995) m1080p BluRay DUAL - HdT
    Konu Sahibi SuperUp Forum m1080p Türkçe Dublaj
    Cevap: 0
    Son Mesaj : 09.Mayıs.2024, 14:05
  5. Kokteyl - Cocktail 1988 m1080p BluRay DUAL DD2.0 x264
    Konu Sahibi FilmRip Forum BluRay Dual TR-EN Filmler
    Cevap: 0
    Son Mesaj : 14.Mart.2023, 13:25

Thread Participants: 2

Bookmarks

Yetkileriniz

  • Konu Acma Yetkiniz Yok
  • Cevap Yazma Yetkiniz Yok
  • Eklenti Yükleme Yetkiniz Yok
  • Mesajınızı Değiştirme Yetkiniz Yok
  •  
1 2 3 4 5 6 7 8 9 10 11 12 13 14 15 16 17 18 19 20 21 22 23 24 25 26 27 28 29 30 31 32 33 34 35 36 37 38 39 40 41 42 43 44 45 46 47 48 49 50 51 52 53 54 55 56 57 58 59 60 61 62 63 64 65 66 67 68 69 70 71 72 73 74 75 76 77 78 79 80 81 82 83 84 85 86 87 88 89 90 91 92 93 94 95 96 97 98 99 100 101 102 103 104 105 106 107 108 109 110 111 112 113 114 115 116 117 118 119 120 121 122 123 124 125 126 127 128 129 130 131 132 133 134 135 136 137 138 139 140 141 142 143 144 145 146 147 148 149 150 151 152 153 154 155 156 157 158 159 160 161 162 163 164 165 166 167 168 169 170 171 172 173 174 175 176 177 178 179 180 181 182 183 184 185 186 187 188 189 190 191 192 193 194 195 196 197 198 199