Toplam 2 adet sonuctan sayfa basi 1 ile 2 arasi kadar sonuc gösteriliyor

Konu: LaRoy, Texas (2023) 1080p Türkçe Altyazılı WEB-DL WEBRip x264

  1. #1
    Super Moderator SuperUp - ait Kullanıcı Resmi (Avatar)
    Üyelik tarihi
    14 Nisan 2024
    Mesajlar
    8,644
    Konular
    8131
    Teşekkürleri
    5830
    Blog Entries
    7680
    Tecrübe Puanı
    584

    LaRoy, Texas (2023) 1080p Türkçe Altyazılı WEB-DL WEBRip x264

    LaRoy, Texas (2023) 1080p Türkçe Altyazılı WEB-DL WEBRip x264

    [Ziyaretçiler üye olmadan, üyelerimiz ise konuya mesaj yazmadan linkleri görüntüleyemezler.Ziyaretçiler üye olmadan, üyelerimiz ise konuya mesaj yazmadan linkleri görüntüleyemezler.]
    Tür: Suç, Komedi, Gerilim

    Ray, karısının onu aldattığını öğrendiğinde yaşamına son vermek ister. Ancak planları bir yabancı tarafından düşük bütçeli bir tetikçi sanılınca aniden değişir. Yabancı, Ray'e özel bir iş teklif eder: Bir hedefi ortadan kaldırmak.

    Oyuncular: John Magaro, Steve Zahn, Galadriel Stineman, Matthew Del Negro, Bob Clendenin, Brad Leland, Dylan Baker, Megan Stevenson, Emily Pendergast, Alex Knight

    [Ziyaretçiler üye olmadan, üyelerimiz ise konuya mesaj yazmadan linkleri görüntüleyemezler.Ziyaretçiler üye olmadan, üyelerimiz ise konuya mesaj yazmadan linkleri görüntüleyemezler.]
    FİLMDEN KARELER

    Kod:
    General
    Format         : Matroska
    File size        : 2.07 GiB
    Duration         : 1 h 52 min
    Overall bit rate       : 2 635 kb/s
    Frame rate        : 23.976 FPS
    Video
    Format         : AVC
    Format/Info        : Advanced Video Codec
    Duration         : 1 h 52 min
    Width         : 1 920 pixels
    Height         : 800 pixels
    Frame rate        : 23.976 (24000/1001) FPS
    Stream size        : 1.76 GiB (85%)
    Audio
    Format         : AAC LC
    Format/Info        : Advanced Audio Codec Low Complexity
    Duration         : 1 h 52 min
    Channel(s)        : 6 channels
    Frame rate        : 46.875 FPS (1024 SPF)
    Stream size        : 309 MiB (15%)
    Altyazı 
    Format         : UTF-8
    Codec ID/Info       : UTF-8 Plain Altyazı 
    Duration         : 1 h 45 min
    Frame rate        : 0.234 FPS
    Stream size        : 40.3 KiB (0%)
    Language         : Türkçe
    [Ziyaretçiler üye olmadan, üyelerimiz ise konuya mesaj yazmadan linkleri görüntüleyemezler.Ziyaretçiler üye olmadan, üyelerimiz ise konuya mesaj yazmadan linkleri görüntüleyemezler.]
    Kod:
    https://iniyor.net/tb/800f380755a86e39da79173ec6efa5e7/LaRoy.Texas.2023.1080p.T%C3%BCrk%C3%A7e.Altyaz%C4%B1l%C4%B1.WEBRip.x264.AAC5.1-YTS%28SuperUp%29.mkv.html
    SuperUp

    turbobit.net, gofile.io, doodrive.com, megaup.net, send.cm, 1fichier.com, mixdrop.ag, pixeldrain.com, streamtape.com, rapidgator.net
    İNİYOR.NET ÜCRETSİZ DOSYA İNDİRME LİMİTİ:
    GÜNLÜK 1 ADET VE MAX. 10 GB'DIR

    SİTEMİZE DESTEK OLMAK,
    TÜM LİNKLERE REKLAMSIZ VE SINIRSIZCA ERİŞEBİLMEK İÇİN
    VIP YA DA SUPER VIP ÜYELİK SATIN ALMANIZ GEREKLİDİR


    İNİYOR VIP ÜYELİK DETAYLARI İÇİN TIKLAYIN

    Her Ruh Haline Uygun Filmler İNİYOR VIP'te

    10 BİNLERCE İÇERİĞİ İNDİRMEDEN İZLEYİN

    Tüm Oyuncuların BoxSet'leri İNİYOR VIP'te - Üstelik Sürekli Güncel

    İNİYOR.NET İLE İLGİLİ TÜM AÇIKLAMALAR İÇİN BURAYA TIKLAYIN

  2. Aşağıdaki 2 kullanıcımız bu mesaj için SuperUp teşekkür ediyor

    FilmRip ( 3 Gün önce), solofurky ( 3 Gün önce)

  3. #2
    Forum Sahibi FilmRip - ait Kullanıcı Resmi (Avatar)
    Üyelik tarihi
    24 Ocak 2021
    Nereden
    TR Ankara
    Yaş
    59
    Mesajlar
    68,574
    Konular
    37195
    Teşekkürleri
    938648
    Tecrübe Puanı
    10

    Standart

    paylaşım için teşekkür ederim kardeşim

  4. Aşağıdaki kullanıcı bu mesajdan dolayı FilmRip teşekkür ediyor

    SuperUp ( 3 Gün önce)

Konu Bilgileri

Bu Konuya Gözatan Kullanıcılar

Şu anda 1 kullanıcı bu konuyu görüntülüyor. (0 kayıtlı ve 1 misafir)

Benzer Konular

  1. Exhuma - Pamyo (2024) 1080p Türkçe Altyazılı WEB-DL WEBRip x264
    Konu Sahibi SuperUp Forum 1080p Orjinal Dil
    Cevap: 0
    Son Mesaj : 6 Gün önce, 23:04
  2. Gözcüler - The Watchers (2024) 1080p Türkçe Altyazılı WEBRip x264 DD5.1
    Konu Sahibi SuperUp Forum Türkçe Altyazılı SuperUp Sunumları
    Cevap: 1
    Son Mesaj : 2 Hafta önce, 17:29
  3. Cevap: 4
    Son Mesaj : 2 Hafta önce, 11:15
  4. Dublör - The Fall Guy (2024) 1080p Türkçe Altyazılı WEBRip x264
    Konu Sahibi SuperUp Forum 1080p Orjinal Dil
    Cevap: 0
    Son Mesaj : 3 Hafta önce, 17:50
  5. Paris, Texas (1984) - Paris, Texas Türkçe Dil Seçenekli DUAL 1080p
    Konu Sahibi FilmRip Forum BluRay Dual TR-EN Filmler
    Cevap: 1
    Son Mesaj : 24.Temmuz.2023, 17:38

Thread Participants: 1

Bookmarks

Yetkileriniz

  • Konu Acma Yetkiniz Yok
  • Cevap Yazma Yetkiniz Yok
  • Eklenti Yükleme Yetkiniz Yok
  • Mesajınızı Değiştirme Yetkiniz Yok
  •  
1 2 3 4 5 6 7 8 9 10 11 12 13 14 15 16 17 18 19 20 21 22 23 24 25 26 27 28 29 30 31 32 33 34 35 36 37 38 39 40 41 42 43 44 45 46 47 48 49 50 51 52 53 54 55 56 57 58 59 60 61 62 63 64 65 66 67 68 69 70 71 72 73 74 75 76 77 78 79 80 81 82 83 84 85 86 87 88 89 90 91 92 93 94 95 96 97 98 99 100 101 102 103 104 105 106 107 108 109 110 111 112 113 114 115 116 117 118 119 120 121 122 123 124 125 126 127 128 129 130 131 132 133 134 135 136 137 138 139 140 141 142 143 144 145 146 147 148 149 150 151 152 153 154 155 156 157 158 159 160 161 162 163 164 165 166 167 168 169 170 171 172 173 174 175 176 177 178 179 180 181 182 183 184 185 186 187 188 189 190 191 192 193 194 195 196 197 198 199