Toplam 2 adet sonuctan sayfa basi 1 ile 2 arasi kadar sonuc gösteriliyor

Konu: Teneffüs Zili: Beşinci Sınıf Olmak - Recess: Taking the Fifth Grade (2001) 720p WEB-DL H264 Türkçe Altyazılı

  1. #1
    Super Moderator SuperUp - ait Kullanıcı Resmi (Avatar)
    Üyelik tarihi
    14 Nisan 2024
    Mesajlar
    8,644
    Konular
    8131
    Teşekkürleri
    5830
    Blog Entries
    7680
    Tecrübe Puanı
    584

    Teneffüs Zili: Beşinci Sınıf Olmak - Recess: Taking the Fifth Grade (2001) 720p WEB-DL H264 Türkçe Altyazılı

    Teneffüs Zili: Beşinci Sınıf Olmak - Recess: Taking the Fifth Grade (2001) 720p WEB-DL H264 Türkçe Altyazılı

    [Ziyaretçiler üye olmadan, üyelerimiz ise konuya mesaj yazmadan linkleri görüntüleyemezler.Ziyaretçiler üye olmadan, üyelerimiz ise konuya mesaj yazmadan linkleri görüntüleyemezler.]
    Tür: Aile, Animasyon

    Herkesin en sevdiği dördüncü sınıf öğrencileri mezun oldu! Çocuklar için yepyeni bir okul yılı başlıyor - ve çete beşinci sınıfa koşarak giriyor! Ancak bazı istenmeyen değişiklikleri keşfettiklerinde yollarında dururlar - pizza yok, oyun alanı yok... dolap yok! Ve işleri daha da kötüleştirmek için, öğretmenleri huysuz Bayan Finster'a dönüşüyor! Tüm bunlar, çetenin inandığı şeyleri savunmanın ve sevdikleri okulu iyileştirmenin bir yolunu bulmaya kararlı olan T.J. için çok fazla! Beşinci sınıf herkesin içindeki en iyiyi ortaya çıkarıyor... Bayan Finster ve Müdür Prickly'nin bile!

    Oyuncular: Andrew Lawrence, Pamela Adlon, Ashley Johnson, Jason Davis, Courtland Mead, April Winchell, Dabney Coleman, Robert Goulet

    [Ziyaretçiler üye olmadan, üyelerimiz ise konuya mesaj yazmadan linkleri görüntüleyemezler.Ziyaretçiler üye olmadan, üyelerimiz ise konuya mesaj yazmadan linkleri görüntüleyemezler.]
    FİLMDEN KARELER

    Kod:
    General
    Format         : Matroska
    File size        : 1.99 GiB
    Duration         : 1 h 1 min
    Overall bit rate mode     : Variable
    Overall bit rate       : 4 610 kb/s
    Frame rate        : 23.976 FPS
    Video
    Format         : AVC
    Format/Info        : Advanced Video Codec
    Duration         : 1 h 1 min
    Width         : 1 280 pixels
    Height         : 720 pixels
    Frame rate        : 23.976 (24000/1001) FPS
    Stream size        : 1.82 GiB (92%)
    Ses 1
    Format         : AAC LC
    Format/Info        : Advanced Audio Codec Low Complexity
    Duration         : 1 h 1 min
    Channel(s)        : 2 channels
    Frame rate        : 46.875 FPS (1024 SPF)
    Stream size        : 55.3 MiB (3%)
    Language         : German
    Ses 2
    Format         : E-AC-3
    Duration         : 1 h 1 min
    Channel(s)        : 6 channels
    Frame rate        : 31.250 FPS (1536 SPF)
    Stream size        : 113 MiB (6%)
    Language         : English
    Altyazı  #1
    Format         : UTF-8
    Codec ID/Info       : UTF-8 Plain Altyazı 
    Duration         : 52 min 19 s
    Frame rate        : 0.003 FPS
    Stream size        : 197 Bytes (0%)
    Language         : German
    Altyazı  #2
    Format         : UTF-8
    Codec ID/Info       : UTF-8 Plain Altyazı 
    Duration         : 1 h 0 min
    Frame rate        : 0.239 FPS
    Stream size        : 38.5 KiB (0%)
    Language         : German
    Altyazı  #3
    Format         : UTF-8
    Codec ID/Info       : UTF-8 Plain Altyazı 
    Duration         : 1 h 1 min
    Frame rate        : 0.533 FPS
    Stream size        : 58.1 KiB (0%)
    Language         : English
    Altyazı  #4
    Format         : UTF-8
    Codec ID/Info       : UTF-8 Plain Altyazı 
    Duration         : 1 h 0 min
    Frame rate        : 0.350 FPS
    Stream size        : 51.8 KiB (0%)
    Language         : Czech
    Altyazı  #5
    Format         : UTF-8
    Codec ID/Info       : UTF-8 Plain Altyazı 
    Duration         : 1 h 1 min
    Frame rate        : 0.355 FPS
    Stream size        : 40.3 KiB (0%)
    Language         : Danish
    Altyazı  #6
    Format         : UTF-8
    Codec ID/Info       : UTF-8 Plain Altyazı 
    Duration         : 1 h 0 min
    Frame rate        : 0.350 FPS
    Stream size        : 72.7 KiB (0%)
    Language         : Greek
    Altyazı  #7
    Format         : UTF-8
    Codec ID/Info       : UTF-8 Plain Altyazı 
    Duration         : 1 h 0 min
    Frame rate        : 0.302 FPS
    Stream size        : 38.1 KiB (0%)
    Language         : Spanish
    Altyazı  #8
    Format         : UTF-8
    Codec ID/Info       : UTF-8 Plain Altyazı 
    Duration         : 1 h 0 min
    Frame rate        : 0.305 FPS
    Stream size        : 42.9 KiB (0%)
    Language         : Spanish
    Altyazı  #9
    Format         : UTF-8
    Codec ID/Info       : UTF-8 Plain Altyazı 
    Duration         : 1 h 1 min
    Frame rate        : 0.356 FPS
    Stream size        : 38.0 KiB (0%)
    Language         : Finnish
    Altyazı  #10
    Format         : UTF-8
    Codec ID/Info       : UTF-8 Plain Altyazı 
    Duration         : 1 h 0 min
    Frame rate        : 0.240 FPS
    Stream size        : 41.2 KiB (0%)
    Language         : French
    Altyazı  #11
    Format         : UTF-8
    Codec ID/Info       : UTF-8 Plain Altyazı 
    Duration         : 1 h 1 min
    Frame rate        : 0.345 FPS
    Stream size        : 42.2 KiB (0%)
    Language         : Hungarian
    Altyazı  #12
    Format         : UTF-8
    Codec ID/Info       : UTF-8 Plain Altyazı 
    Duration         : 1 h 1 min
    Frame rate        : 0.409 FPS
    Stream size        : 62.5 KiB (0%)
    Language         : Korean
    Altyazı  #13
    Format         : UTF-8
    Codec ID/Info       : UTF-8 Plain Altyazı 
    Duration         : 1 h 1 min
    Frame rate        : 0.356 FPS
    Stream size        : 42.0 KiB (0%)
    Language         : Norwegian
    Altyazı  #14
    Format         : UTF-8
    Codec ID/Info       : UTF-8 Plain Altyazı 
    Duration         : 1 h 1 min
    Frame rate        : 0.353 FPS
    Stream size        : 43.6 KiB (0%)
    Language         : Polish
    Altyazı  #15
    Format         : UTF-8
    Codec ID/Info       : UTF-8 Plain Altyazı 
    Duration         : 1 h 0 min
    Frame rate        : 0.336 FPS
    Stream size        : 55.1 KiB (0%)
    Language         : Portuguese
    Altyazı  #16
    Format         : UTF-8
    Codec ID/Info       : UTF-8 Plain Altyazı 
    Duration         : 1 h 0 min
    Frame rate        : 0.311 FPS
    Stream size        : 46.2 KiB (0%)
    Language         : Portuguese
    Altyazı  #17
    Format         : UTF-8
    Codec ID/Info       : UTF-8 Plain Altyazı 
    Duration         : 1 h 0 min
    Frame rate        : 0.330 FPS
    Stream size        : 46.9 KiB (0%)
    Language         : Romanian
    Altyazı  #18
    Format         : UTF-8
    Codec ID/Info       : UTF-8 Plain Altyazı 
    Duration         : 1 h 1 min
    Frame rate        : 0.355 FPS
    Stream size        : 44.6 KiB (0%)
    Language         : Swedish
    Altyazı  #19
    Format         : UTF-8
    Codec ID/Info       : UTF-8 Plain Altyazı 
    Duration         : 1 h 1 min
    Frame rate        : 0.410 FPS
    Stream size        : 54.2 KiB (0%)
    Language         : Türkçe
    Altyazı  #20
    Format         : UTF-8
    Codec ID/Info       : UTF-8 Plain Altyazı 
    Duration         : 1 h 0 min
    Frame rate        : 0.419 FPS
    Stream size        : 48.9 KiB (0%)
    Language         : Chinese
    Altyazı  #21
    Format         : UTF-8
    Codec ID/Info       : UTF-8 Plain Altyazı 
    Duration         : 1 h 1 min
    Frame rate        : 0.413 FPS
    Stream size        : 49.2 KiB (0%)
    Language         : Chinese
    Altyazı  #22
    Format         : UTF-8
    Codec ID/Info       : UTF-8 Plain Altyazı 
    Duration         : 1 h 1 min
    Frame rate        : 0.390 FPS
    Stream size        : 50.8 KiB (0%)
    Language         : Chinese
    [Ziyaretçiler üye olmadan, üyelerimiz ise konuya mesaj yazmadan linkleri görüntüleyemezler.Ziyaretçiler üye olmadan, üyelerimiz ise konuya mesaj yazmadan linkleri görüntüleyemezler.]
    Kod:
    https://iniyor.net/tb/faebb66a77188b1fb9abe3ec5809d704/Disneys.Grosse.Pause.Wir.sind.Fuenftklaessler.2003.GERMAN.DL.720p.WEB.H264-FWB.mkv.html
    SuperUp

    turbobit.net, gofile.io, doodrive.com, megaup.net, send.cm, 1fichier.com, mixdrop.ag, pixeldrain.com, streamtape.com, rapidgator.net
    Konu SuperUp tarafından ( 3 Gün önce Saat 11:05 ) değiştirilmiştir.
    İNİYOR.NET ÜCRETSİZ DOSYA İNDİRME LİMİTİ:
    GÜNLÜK 1 ADET VE MAX. 10 GB'DIR

    SİTEMİZE DESTEK OLMAK,
    TÜM LİNKLERE REKLAMSIZ VE SINIRSIZCA ERİŞEBİLMEK İÇİN
    VIP YA DA SUPER VIP ÜYELİK SATIN ALMANIZ GEREKLİDİR


    İNİYOR VIP ÜYELİK DETAYLARI İÇİN TIKLAYIN

    Her Ruh Haline Uygun Filmler İNİYOR VIP'te

    10 BİNLERCE İÇERİĞİ İNDİRMEDEN İZLEYİN

    Tüm Oyuncuların BoxSet'leri İNİYOR VIP'te - Üstelik Sürekli Güncel

    İNİYOR.NET İLE İLGİLİ TÜM AÇIKLAMALAR İÇİN BURAYA TIKLAYIN

  2. Aşağıdaki kullanıcı bu mesajdan dolayı SuperUp teşekkür ediyor

    FilmRip ( 3 Gün önce)

  3. #2
    Forum Sahibi FilmRip - ait Kullanıcı Resmi (Avatar)
    Üyelik tarihi
    24 Ocak 2021
    Nereden
    TR Ankara
    Yaş
    59
    Mesajlar
    68,574
    Konular
    37195
    Teşekkürleri
    938648
    Tecrübe Puanı
    10

    Standart

    paylaşım için teşekkür ederim kardeşim

Konu Bilgileri

Bu Konuya Gözatan Kullanıcılar

Şu anda 1 kullanıcı bu konuyu görüntülüyor. (0 kayıtlı ve 1 misafir)

Benzer Konular

  1. Cevap: 2
    Son Mesaj : 1 hafta önce, 17:34
  2. Cevap: 0
    Son Mesaj : 1 hafta önce, 16:36
  3. Cevap: 1
    Son Mesaj : 1 hafta önce, 15:01
  4. Cevap: 0
    Son Mesaj : 4 Hafta önce, 10:14
  5. Hit Man (2023) 720p WEB-DL H264 Türkçe Altyazılı
    Konu Sahibi SuperUp Forum 720p & 810p Orjinal Dil
    Cevap: 0
    Son Mesaj : 08.Haziran.2024, 20:43

Thread Participants: 1

Bookmarks

Yetkileriniz

  • Konu Acma Yetkiniz Yok
  • Cevap Yazma Yetkiniz Yok
  • Eklenti Yükleme Yetkiniz Yok
  • Mesajınızı Değiştirme Yetkiniz Yok
  •  
1 2 3 4 5 6 7 8 9 10 11 12 13 14 15 16 17 18 19 20 21 22 23 24 25 26 27 28 29 30 31 32 33 34 35 36 37 38 39 40 41 42 43 44 45 46 47 48 49 50 51 52 53 54 55 56 57 58 59 60 61 62 63 64 65 66 67 68 69 70 71 72 73 74 75 76 77 78 79 80 81 82 83 84 85 86 87 88 89 90 91 92 93 94 95 96 97 98 99 100 101 102 103 104 105 106 107 108 109 110 111 112 113 114 115 116 117 118 119 120 121 122 123 124 125 126 127 128 129 130 131 132 133 134 135 136 137 138 139 140 141 142 143 144 145 146 147 148 149 150 151 152 153 154 155 156 157 158 159 160 161 162 163 164 165 166 167 168 169 170 171 172 173 174 175 176 177 178 179 180 181 182 183 184 185 186 187 188 189 190 191 192 193 194 195 196 197 198 199