Münih - Munich (2005) m1080p DUAL NF WEB-DL H264 - SuperUp

[Ziyaretçiler üye olmadan, üyelerimiz ise konuya mesaj yazmadan linkleri görüntüleyemezler.Ziyaretçiler üye olmadan, üyelerimiz ise konuya mesaj yazmadan linkleri görüntüleyemezler.]
Tür: Dram, Aksiyon, Tarih, Gerilim

1972 Münih olimpiyatlar'ında 11 İsaril'li atlete yönelik inanılmaz katliamın perde arkasını anlatan filmde, İsrail Gizli Servisi Mossad üyelerinden oluşan bir grup, bu işe karıştıklarını düşündükleri Filistinli suikast komandolarını öldürmekle görevlendirilirler. Liderlerini izleyen İsrail'li grup bu operasyonu intikam almak adına yapmaktadır. Ama zamanla kendileri de bir hedef haline geleceklerdir.

Oyuncular: Eric Bana, Daniel Craig, Ciaran Hinds, Mathieu Kassovitz, Hanns Zischler, Ayelet Zurer, Geoffrey Rush, Gila Almagor, Michael Lonsdale, Mathieu Amalric

[Ziyaretçiler üye olmadan, üyelerimiz ise konuya mesaj yazmadan linkleri görüntüleyemezler.Ziyaretçiler üye olmadan, üyelerimiz ise konuya mesaj yazmadan linkleri görüntüleyemezler.]
FİLMDEN KARELER

Kod:
General
Format         : Matroska
File size        : 1.63 GiB
Duration         : 2 h 44 min
Overall bit rate mode     : Variable
Overall bit rate       : 1 422 kb/s
Frame rate        : 23.976 FPS
Video
Format         : AVC
Format/Info        : Advanced Video Codec
Duration         : 2 h 44 min
Width         : 1 920 pixels
Height         : 1 080 pixels
Frame rate        : 23.976 (24000/1001) FPS
Stream size        : 1.19 GiB (73%)
Ses 1
Format         : AAC LC SBR
Format/Info        : Advanced Audio Codec Low Complexity with Spectral Band Replication
Duration         : 2 h 44 min
Channel(s)        : 6 channels
Frame rate        : 23.438 FPS (2048 SPF)
Stream size        : 226 MiB (14%)
Language         : Türkçe
Ses 2
Format         : AAC LC SBR
Format/Info        : Advanced Audio Codec Low Complexity with Spectral Band Replication
Duration         : 2 h 44 min
Channel(s)        : 6 channels
Frame rate        : 23.438 FPS (2048 SPF)
Stream size        : 226 MiB (14%)
Language         : English
Altyazı  #1
Format         : UTF-8
Codec ID/Info       : UTF-8 Plain Altyazı 
Duration         : 1 h 29 min
Frame rate        : 0.010 FPS
Stream size        : 2.01 KiB (0%)
Language         : Türkçe
Altyazı  #2
Format         : UTF-8
Codec ID/Info       : UTF-8 Plain Altyazı 
Duration         : 2 h 35 min
Frame rate        : 0.178 FPS
Stream size        : 59.1 KiB (0%)
Language         : Türkçe
Altyazı  #3
Format         : UTF-8
Codec ID/Info       : UTF-8 Plain Altyazı 
Duration         : 2 h 37 min
Frame rate        : 0.216 FPS
Stream size        : 66.4 KiB (0%)
Language         : English
Altyazı  #4
Format         : UTF-8
Codec ID/Info       : UTF-8 Plain Altyazı 
Duration         : 29 min 8 s
Frame rate        : 0.025 FPS
Stream size        : 1.73 KiB (0%)
Language         : English
[Ziyaretçiler üye olmadan, üyelerimiz ise konuya mesaj yazmadan linkleri görüntüleyemezler.Ziyaretçiler üye olmadan, üyelerimiz ise konuya mesaj yazmadan linkleri görüntüleyemezler.]
Kod:
https://iniyor.net/tb/9e8fc1025d64667b4dd8c5cfbbd44ae4/M%C3%BCnih%20%282005%29%20m1080p%20DUAL%20TR%20EN%20NF%20WEB-DL%20H264%20-%20SuperUp.mkv.html
SuperUp

turbobit.net, gofile.io, doodrive.com, megaup.net, send.cm, 1fichier.com, mixdrop.ag, pixeldrain.com, streamtape.com, rapidgator.net